Важное объявление!
У Нас Все раздачи мультитрекерные, при нуле пиров в релизах, можете смело вставать на закачку!
 
Автор Сообщение

HUNTER

Стаж:
4 года 4 месяца
Сообщений:
56733

Репутация: 101

[+] [-]
Вне форума [Профиль] [ЛС]

Ремонт. Энциклопедия отделки от СуперСтроя. 31-а серия по темам.
Год выпуска: 2001
Страна: Россия
Жанр: документальный
Продолжительность: 31 видеоурок по 5-6 минут
Описание: Данные видеоуроки помогут Вам при ремонте и отделке квартиры, своего дома, коттеджа. Даже, если заниматься выполнением отделки заниматься будете на Вы, а нанятые рабочие, то просмотрев короткие, но емкие в информационном плане ролики Вы будете иметь представление о технологии выполняемых работ и сможете выявлять "халтуру" рабочих. В 31 одном пятиминутном ролике затрагиваются вопросы от укладки линолеума и ламината до наклейки обоев и обшивки стен и потолка гипсокартоном и многое другое. Раздавать смогу в будни с 18:00 до 01:00.

Содержание

1. Удаление отделки с потолков. В этом ролике рассказаны общие рекомендации при проведении ремонта, показано удаление старой побелки с потолка, грунтование поверхности.
2. Нанесение штукатурки и шпатлевки на основание.
3. Наклейка и покраска обоев на потолок. В этом ролике показана наклейка виниловых и флизелиновых обоев на потолок. Покраска обоев на потолке.
4. Общие положения при монтаже подвесного потолка из гипсокартона.
5. удаление старых обоев, подготовка основания перед декоративной отделкой.
6. Накейка виниловых обоев на стену.
7. Настил Линолеума. В этом ролике показана подготовка пола для настила линолеума (заливка ровнителем), укладка линолеума на основание.
8. Подготовка и покраска дверных и оконных проемов. Покраска радиаторов.
9. Укладка керамической плитки на пол и подготовка оснований.
10. Общие положения при устройстве перегородок из гипсокартона и нанесение декоративной штукатурки. В ролике показаны основные принципы создания конструкций перегородок из ГКЛ, и нанесение декоративной штукатурки на подготовленную поверхность.
11. Монтаж подвесного кассетного потолка системы "Армстронг", наклейка потолочной пенополистирольной плитки.
12. Монтаж подвесного реечного потолка, монтаж пластиковых панелей на потолок. Краткий обзор прошедших ранее передач.
13. Наклейка керамической плитки на стены.
14. Выравнивание пола фанерой по лагам.
15. Общие положения при укладке ламината.
16. Облицовка стен панелями МДФ и пластиковыми панелями..
17. Облицовка стен декоративной штукатуркой.
18. Наклейка декоративного камня, керамической плитки на стены, керамогранита на пол.
19. Демонтаж стеновых панелей.
20. Выравнивание стен под обои, наклейка обоев на стены, наклейка бордюров.
21. «Что русскому хорошо – то немцу смерть». Подготовка поверхности и отделка во влажных помещениях: шпатлевание и шлифование, укладка керамической плитки, покраска.
22. Если не обои, панели или плитка, то что? Штукатурка – материал древний, а технологии современные. Про декоративные штукатурки, которые наносятся валиком – первая часть.
23. Установка дверных блоков и врезка замков.
24. Если не нравятся гладкие стены или надо скрыть изъяны стены, при этом создать неповторимый вид помещения – моделирующая штукатурка подойдет для этих целей.
Работа с декоративными (моделирующими) штукатурками (часть вторая).
25. Не ткань, не обои, не стекло… А все вместе. Декоративная отделка стен или потолков с помощью стеклообоев.
26. Хороший инструмент – залог успешного и быстрого ремонта. Как и какой используется инструмент при ремонте квартир?
27. Флизелиновые обои – один самых популярных материалов для отделки помещений. Как выбрать обои для разных помещений? Основные приемы работы с обоями в этой передаче.
28 передача. Комфорт помещения во многом зависит от качества пола. Устройство полов. Сухие полы «Кнауф» - конструкция из гипсоволокнистых листов и теплоизолирующего слоя.
29 Виниловые обои – обои на все случаи жизни. Что означают пиктограммы на упаковках обоев и как сделать из обычных обоев картину, и, возможно, шедевр, в этом ролике…Линолеум, можно сказать, самый популярный материал для отделки полов в жилых помещениях.
30. Об укладке линолеума, зарезке и подгонке стыков, склейке швов рассказывается в этой передаче.
31. Древесина – самый древний строительный материал и, по-прежнему, самый любимый. Специально для садовых построек и не только. Как защитить от точащих насекомых, гнили и огня деревянные конструкции.
Качество: TVRip
Формат: AVI
Видео кодек: XviD
Аудио кодек: MP3
Видео: Bit rate : 231 Kbps;Width : 320 pixels*Height : 240 pixels; Display aspect ratio : 4:3; Frame rate : 25.000 fpsResolution : 24 bits; Stream size : 9.51 MiB (85%)
Аудио: Format : MPEG Audio; Bit rate : 32.0 Kbps; Sampling rate : 24.0 KHz; Resolution : 16 bits; Stream size : 1.31 MiB (12%)

Скриншоты






_________________
Показать сообщения:    

Текущее время: Сегодня 19:18

Часовой пояс: GMT



Вы не можете начинать темы
Вы не можете отвечать на сообщения
Вы не можете редактировать свои сообщения
Вы не можете удалять свои сообщения
Вы не можете голосовать в опросах
Вы не можете прикреплять файлы к сообщениям
Вы не можете скачивать файлы