Важное объявление!
У Нас Все раздачи мультитрекерные, при нуле пиров в релизах, можете смело вставать на закачку!
 
Автор Сообщение

mihis

[Профиль] [ЛС]

Река / The River«He showed her his strength, his courage, his incredible will. She showed him her love.»Год выпуска: 1984
Страна: США, Universal Pictures
Жанр: Драма
Продолжительность: 02:03:43
Перевод: Профессиональный (многоголосый, закадровый) 1 канал
Субтитры: Нет
Режиссер: Марк Райделл
В ролях: Мэл Гибсон, Сисси Спейсек, Шэйн Бэйли, Бекки Джо Линч, Скотт Гленн, Дон Худ, Билли Грин Буш, Джеймс Толкан, Боб В. Дуглас, Энди Стал
Описание: Фермеры Том и Мэй Гарви вступают в борьбу за свою землю с местными властями, которые планируют затопить ее для строительства гидроэлектростанции.

Качество: HDDVDRip-AVC
Формат: MKV
Видео кодек: H.26x
Аудио кодек: AC3
Видео: 1280x688, 23.976 fps, 2388 Kbps, 0.113 Bits/(Pixel*Frame)
Аудио: AC-3, 192 Kbps, 2 channels, 48.0 KHz

Награды

Оскар, 1985 год
Победитель (1):
Награда за особые достижения — «за монтаж звуковых эффектов»
Номинации (4):
Лучшая женская роль (Сисси Спейсек)
Лучшая работа оператора
Лучший звук
Лучший оригинальный саундтрек
Золотой глобус, 1985 год
Номинации (2):
Лучшая женская роль (драма) (Сисси Спейсек)
Лучший саундтрек

MediaInfo

Format : Matroska
Format version : Version 2
File size : 2.22 GiB
Duration : 2h 3mn
Overall bit rate : 2 567 Kbps
Encoded date : UTC 2012-04-28 06:10:29
Writing application : mkvmerge v4.0.0 ('The Stars were mine') сборка от Jun 6 2010 16:18:42
Writing library : libebml v1.0.0 + libmatroska v1.0.0
Video
ID : 1
Format : AVC
Format/Info : Advanced Video Codec
Format profile : High@L4.1
Format settings, CABAC : Yes
Format settings, ReFrames : 4 frames
Codec ID : V_MPEG4/ISO/AVC
Duration : 2h 3mn
Bit rate : 2 388 Kbps
Width : 1 280 pixels
Height : 688 pixels
Display aspect ratio : 1.860
Frame rate mode : Variable
Frame rate : 23.976 fps
Color space : YUV
Chroma subsampling : 4:2:0
Bit depth : 8 bits
Scan type : Progressive
Bits/(Pixel*Frame) : 0.113
Stream size : 2.01 GiB (91%)
Writing library : x264 core 120 r2164
Encoding settings : cabac=1 / ref=4 / deblock=1:-3:-3 / analyse=0x3:0x133 / me=esa / subme=10 / psy=1 / psy_rd=0.10:0.20 / mixed_ref=0 / me_range=24 / chroma_me=1 / trellis=2 / 8x8dct=1 / cqm=0 / deadzone=21,12 / fast_pskip=1 / chroma_qp_offset=-2 / threads=12 / sliced_threads=0 / nr=1 / decimate=1 / interlaced=0 / bluray_compat=0 / constrained_intra=0 / bframes=9 / b_pyramid=2 / b_adapt=2 / b_bias=0 / direct=3 / weightb=1 / open_gop=1 / weightp=0 / keyint=230 / keyint_min=23 / scenecut=40 / intra_refresh=0 / rc_lookahead=60 / rc=abr / mbtree=1 / bitrate=2388 / ratetol=1.0 / qcomp=0.90 / qpmin=1 / qpmax=69 / qpstep=5 / vbv_maxrate=24000 / vbv_bufsize=24000 / nal_hrd=none / ip_ratio=1.40 / aq=1:0.70
Language : English
Audio
ID : 2
Format : AC-3
Format/Info : Audio Coding 3
Mode extension : CM (complete main)
Codec ID : A_AC3
Duration : 2h 3mn
Bit rate mode : Constant
Bit rate : 192 Kbps
Channel(s) : 2 channels
Channel positions : Front: L R
Sampling rate : 48.0 KHz
Bit depth : 16 bits
Compression mode : Lossy
Stream size : 170 MiB (7%)
Title : 1 канал
Language : Russian
Источник
 
Показать сообщения:    

Текущее время: Сегодня 21:24

Часовой пояс: GMT



Вы не можете начинать темы
Вы не можете отвечать на сообщения
Вы не можете редактировать свои сообщения
Вы не можете удалять свои сообщения
Вы не можете голосовать в опросах
Вы не можете прикреплять файлы к сообщениям
Вы не можете скачивать файлы