Важное объявление!
У Нас Все раздачи мультитрекерные, при нуле пиров в релизах, можете смело вставать на закачку!
 
Автор Сообщение

HUNTER

Стаж:
4 года 4 месяца
Сообщений:
56755

Репутация: 101

[+] [-]
Вне форума [Профиль] [ЛС]

Рейс MH-17: Информация к размышлению
Дата/Год выпуска: 2015
Страна: Россия
Жанр: документальный
Продолжительность: 00:27:41
Перевод: Не требуется
Русские субтитры: нет
Оригинальная аудиодорожка: русский
Автор: Яна Ерлашова
Режиссеры: Виталий Бирюков, Александр Дзюбло
Телеканал: НТВ
Описание: Военный конфликт на Украине стал причиной личной трагедии для жителей многих стран – погибли 298 пассажиров и членов экипажа, находившихся на борту разбившегося под Донецком самолёта Boeing 777 Malaysia Airlines. Пока международное сообщество ожидает результатов расследования катастрофы, различные версии, выдвигаемые СМИ, лишь подливают масла в огонь взаимных обвинений. Съёмочная группа RTД посетила Украину, страны ЕС и Австралию, чтобы встретиться с родственниками жертв трагедии, свидетелями и экспертами, и выяснить, что они думают об обстоятельствах гибели рейса МН-17 и о ходе расследования.
17 июля 2014 года самолёт Boeing 777 авиакомпании Malaysia Airlines выполнял плановый рейс из Амстердама в Куала-Лумпур. Катастрофа произошла в небе над Украиной. Все 283 пассажира и 15 членов экипажа погибли.
Сэмпл: http://sendfile.su/1080664
качество: IPTVRip
формат: AVI
Видео: XVID, MPEG-4 Visual, 704x400, (16:9), ~1650 kbps, 25 fps
Аудио: MP3, ~128 kbps, 48 kHz, 2 сh stereo

MediaInfo

GeneralComplete name : Рейс MH-17: Информация к размышлению (2015).aviFormat : AVIFormat/Info : Audio Video InterleaveFile size : 354 MiBDuration : 27mn 41sOverall bit rate : 1 787 KbpsMovie name : (2015.01.25)Writing application : VirtualDubMod 1.5.10.2 (build 2540/release)Writing library : VirtualDubMod build 2540/release
VideoID : 0Format : MPEG-4 VisualFormat profile : Simple@L3Format settings, BVOP : NoFormat settings, QPel : NoFormat settings, GMC : No warppointsFormat settings, Matrix : Default (H.263)Codec ID : XVIDCodec ID/Hint : XviDDuration : 27mn 41sBit rate : 1 649 KbpsWidth : 704 pixelsHeight : 400 pixelsDisplay aspect ratio : 16:9Frame rate : 25.000 fpsColor space : YUVChroma subsampling : 4:2:0Bit depth : 8 bitsScan type : ProgressiveCompression mode : LossyBits/(Pixel*Frame) : 0.234Stream size : 327 MiB (92%)Writing library : XviD 63
AudioID : 1Format : MPEG AudioFormat version : Version 1Format profile : Layer 3Mode : Joint stereoCodec ID : 55Codec ID/Hint : MP3Duration : 27mn 41sBit rate mode : ConstantBit rate : 128 KbpsChannel(s) : 2 channelsSampling rate : 48.0 KHzCompression mode : LossyStream size : 25.4 MiB (7%)Alignment : Split accross interleavesInterleave, duration : 40 ms (1.00 video frame)Interleave, preload duration : 500 ms

Скриншоты

Скринлист


_________________
Показать сообщения:    

Текущее время: Сегодня 15:01

Часовой пояс: GMT



Вы не можете начинать темы
Вы не можете отвечать на сообщения
Вы не можете редактировать свои сообщения
Вы не можете удалять свои сообщения
Вы не можете голосовать в опросах
Вы не можете прикреплять файлы к сообщениям
Вы не можете скачивать файлы