Важное объявление!
У Нас Все раздачи мультитрекерные, при нуле пиров в релизах, можете смело вставать на закачку!
 
Автор Сообщение

HUNTER

Стаж:
4 года 4 месяца
Сообщений:
56798

Репутация: 101

[+] [-]
Вне форума [Профиль] [ЛС]

Резня в долине памяти / Резня в мемориальной долине / Memorial Valley Massacre / Valley of Death / Son of Sleepaway Camp
Страна: США
Жанр: слэшер
Год выпуска: 1989
Продолжительность: 01:32:30
Перевод: Одноголосый закадровый Васильев
Cубтитры: нет
Оригинальная аудиодорожка: английский
Режиссер: Роберт Хаджес / Robert C. Hughes
В ролях: Джон Керри, Марк Мирс, Джон Касо, Леса Ли
Описание: Владелец кемпинга Аллен Сангстер приглашает всех желающих остановиться в только что открытом после реконструкции лагере Memorial Valley Campsite на уик-энд, чтобы отметить государственный американский праздник День памяти. Аллен хочет немного заработать на туристах, приезжающих в долину в это время. Но вскоре приехавшие путешественники начинают погибать таинственным образом. Местные жители даже представить себе не могут, кто совершает столь жестокие убийства в таких далеких от цивилизации местах. Под подозрение, естественно, попадают понаехавшие в долину туристы. Но их так много, и все они выглядят такими невинными и наивными. Неужели опасность притаилась в окружающем лагерь непроходимом лесу?…
Неплохой малобюджетный фильм ужасов. Роберт Хаджес ненадолго задержался в кинематографе, успев, правда, снять хороший фильм «Кровь охотников» (1986). Актер Джон Керри снимался в фильмах «Аэропорт-77» (1977), «Некуда бежать» (1993), «Палата» (1996), но большей частью его карьера протекала во второстепенных и эпизодических ролях.
Доп. информация: Диск из собственной коллекции.
Сэмпл: http://sendfile.su/1155697
Тип релиза: DVD9 (Custom)
Контейнер: DVD-Video
Видео: NTSC 4:3 (720x480) VBR
Аудио: Russian (Dolby AC3, 192 Кбит/сек, 2 ch)
Аудио 2: English (Dolby AC3, 224 Кбит/сек, 2 ch)

DVDInfo

Size: 5.86 Gb ( 6 145 150 KBytes ) - DVD-9
Enabled regions: 1, 2, 3, 4, 5, 6, 7, 8
VTS_01 :
Play Length: 01:32:22+00:00:08
Video: NTSC 4:3 (720x480) VBR
Audio:
Russian (Dolby AC3, 2 ch)
English (Dolby AC3, 2 ch)
Menu Video:
NTSC 4:3 (720x480) VBR
Menu English Language Unit :
Root Menu

MediaInfo

Общее
Полное имя : J:\Memorial Valley Massacre_1988\VIDEO_TS\VTS_01_1.VOB
Формат : MPEG-PS
Размер файла : 1024 Мбайт
Продолжительность : 15 м.
Режим общего битрейта : Переменный
Общий поток : 9065 Кбит/сек
Библиотека кодирования : encoded by TMPGEnc Video Mastering Works 5 Version. 5.0.6.38
Видео
Идентификатор : 224 (0xE0)
Формат : MPEG Video
Версия формата : Version 2
Профиль формата : Main@Main
Параметр BVOP формата : Да
Параметр матрицы формата : Выборочная
Параметр GOP формата : M=3, N=14
Продолжительность : 15 м.
Вид битрейта : Переменный
Битрейт : 8500 Кбит/сек
Ширина : 720 пикселей
Высота : 480 пикселей
Соотношение сторон : 4:3
Частота кадров : 23,976 кадра/сек
Стандарт вещания : NTSC
Цветовое пространство : YUV
Субдискретизация насыщенности : 4:2:0
Битовая глубина : 8 бит
Тип развёртки : Прогрессивная
Порядок развёртки : 2:3 Pulldown
Метод сжатия : С потерями
Бит/(Пиксели*Кадры) : 1.026
Размер потока : 957 Мбайт (93%)
Библиотека кодирования : TMPGEnc / Video Mastering Works 5 Version. 5.0.6.38 Video Mastering Works 5 Version. 5.0.6.38
Основные цвета : BT.601 NTSC
Характеристики трансфера : BT.601
Коэффициенты матрицы : BT.601
Аудио #1
Идентификатор : 189 (0xBD)-128 (0x80)
Формат : AC-3
Формат/Информация : Audio Coding 3
Расширение режима : CM (complete main)
Параметр Endianness формата : Big
Режим смешивания : DVD-Video
Продолжительность : 15 м.
Вид битрейта : Постоянный
Битрейт : 192 Кбит/сек
Каналы : 2 канала
Расположение каналов : Front: L R
Частота : 48,0 КГц
Битовая глубина : 16 бит
Метод сжатия : С потерями
Размер потока : 21,7 Мбайт (2%)
Аудио #2
Идентификатор : 189 (0xBD)-129 (0x81)
Формат : AC-3
Формат/Информация : Audio Coding 3
Расширение режима : CM (complete main)
Параметр Endianness формата : Big
Режим смешивания : DVD-Video
Продолжительность : 15 м.
Вид битрейта : Постоянный
Битрейт : 224 Кбит/сек
Каналы : 2 канала
Расположение каналов : Front: L R
Частота : 48,0 КГц
Битовая глубина : 16 бит
Метод сжатия : С потерями
Размер потока : 25,3 Мбайт (2%)
Меню

Постеры

Скриншоты меню


_________________
Показать сообщения:    

Текущее время: Сегодня 04:01

Часовой пояс: GMT



Вы не можете начинать темы
Вы не можете отвечать на сообщения
Вы не можете редактировать свои сообщения
Вы не можете удалять свои сообщения
Вы не можете голосовать в опросах
Вы не можете прикреплять файлы к сообщениям
Вы не можете скачивать файлы