Важное объявление!
У Нас Все раздачи мультитрекерные, при нуле пиров в релизах, можете смело вставать на закачку!
 
Автор Сообщение

HUNTER

Стаж:
4 года 4 месяца
Сообщений:
56765

Репутация: 101

[+] [-]
Вне форума [Профиль] [ЛС]

Ревю Чаплина / The Chaplin Revue
Страна: Великобритания
Жанр: комедия
Год выпуска: 1959
Продолжительность: 01:56:32
Перевод: Студийный (одноголосый закадровый)
Перевод: Студийный (одноголосый закадровый) Мастер Тэйп
Cубтитры: русские, английские
Оригинальная аудиодорожка: английский-Режиссер: Чарльз Чаплин / Charles Chaplin
В ролях: Чарльз Чаплин, Альберт Остин, Генри Бергман, Сид Чаплин, Эдна Первиэнс, Мак Суэйн, Лойал Андервуд
Описание: В альманах вошли 3 короткометражных фильма: «Собачья жизнь», «На плечо!», «Пилигрим».
IMDb || КиноПоиск-Тип релиза: BDRip 720p [CtrlHD]
Контейнер: MKV
Видео: x264/AVC, 954x720 at 24 fps, 4058 kbps
Аудио#1: Russian: 48 kHz, AC3, 2.0 ch, 640 kbps
Аудио#2: Russian: 48 kHz, AC3, 2.0 ch, 192 kbps
Аудио#3: English: 48 kHz, AC3, 2.0 ch, 640 kbps
Формат субтитров: softsub (SRT)
Сэмпл

Дополнительно

- Голос переводчика в аудиодорожке №1 взят с [url=viewtopic.php?t=2032745]DVD5[/url].
- В аудиодорожке №2 голосовой перевод (с издания "[url=viewtopic.php?t=1672319]Мастер Тэйп[/url]") только в эпизоде «На плечо!». «Собачья жизнь» и «Пилигрим» переведены субтитрами (отличаются от полных).
- Закадровая речь Чаплина переведена субтитрами.

MediaInfo

General
Unique ID : 242493316159947760353347551215781065835 (0xB66E838E55F097D5B918A68BACC6B46B)
Complete name : The Chaplin Revue.1959.720p.x264-CtrlHD. rutracker.mkv
Format : Matroska
Format version : Version 2
File size : 4.48 GiB
Duration : 1h 56mn
Overall bit rate : 5 502 Kbps
Movie name : Release for RuTracker
Writing application : mkvmerge v5.0.1 ('Es ist Sommer') built on Nov 6 2011 16:23:40
Writing library : libebml v1.2.2 + libmatroska v1.3.0
Video
ID : 1
Format : AVC
Format/Info : Advanced Video Codec
Format profile : High@L4.1
Format settings, CABAC : Yes
Format settings, ReFrames : 12 frames
Codec ID : V_MPEG4/ISO/AVC
Duration : 1h 56mn
Bit rate : 3 921 Kbps
Width : 954 pixels
Height : 720 pixels
Display aspect ratio : 4:3
Frame rate mode : Constant
Frame rate : 24.000 fps
Color space : YUV
Chroma subsampling : 4:2:0
Bit depth : 8 bits
Scan type : Progressive
Bits/(Pixel*Frame) : 0.238
Stream size : 3.19 GiB (71%)
Title : The Chaplin Revue.1959.720p.x264-CtrlHD.rutracker
Writing library : x264 core 148 r2638kMod 7599210
Encoding settings : cabac=1 / ref=12 / deblock=1:-3:-3 / analyse=0x3:0x133 / me=umh / subme=9 / psy=1 / fade_compensate=0.00 / psy_rd=1.05:0.00 / mixed_ref=1 / me_range=32 / chroma_me=1 / trellis=2 / 8x8dct=1 / cqm=0 / deadzone=21,11 / fast_pskip=0 / chroma_qp_offset=-2 / threads=6 / lookahead_threads=1 / sliced_threads=0 / nr=0 / decimate=0 / interlaced=0 / bluray_compat=0 / constrained_intra=0 / fgo=0 / bframes=8 / b_pyramid=2 / b_adapt=2 / b_bias=0 / direct=3 / weightb=1 / open_gop=0 / weightp=2 / keyint=250 / keyint_min=24 / scenecut=40 / intra_refresh=0 / rc=crf / mbtree=0 / crf=18.0000 / qcomp=0.60 / qpmin=0 / qpmax=69 / qpstep=4 / ip_ratio=1.40 / pb_ratio=1.20 / aq=3:0.95
Language : English
Default : Yes
Forced : No
Audio #1
ID : 2
Format : AC-3
Format/Info : Audio Coding 3
Mode extension : CM (complete main)
Format settings, Endianness : Big
Codec ID : A_AC3
Duration : 1h 56mn
Bit rate mode : Constant
Bit rate : 640 Kbps
Channel(s) : 2 channels
Channel positions : Front: L R
Sampling rate : 48.0 KHz
Bit depth : 16 bits
Compression mode : Lossy
Stream size : 533 MiB (12%)
Language : Russian
Default : Yes
Forced : No
Audio #2
ID : 3
Format : AC-3
Format/Info : Audio Coding 3
Mode extension : CM (complete main)
Format settings, Endianness : Big
Codec ID : A_AC3
Duration : 1h 56mn
Bit rate mode : Constant
Bit rate : 192 Kbps
Channel(s) : 2 channels
Channel positions : Front: L R
Sampling rate : 48.0 KHz
Bit depth : 16 bits
Compression mode : Lossy
Stream size : 160 MiB (3%)
Language : Russian
Default : No
Forced : No
Audio #3
ID : 4
Format : AC-3
Format/Info : Audio Coding 3
Mode extension : CM (complete main)
Format settings, Endianness : Big
Codec ID : A_AC3
Duration : 1h 56mn
Bit rate mode : Constant
Bit rate : 640 Kbps
Channel(s) : 2 channels
Channel positions : Front: L R
Sampling rate : 48.0 KHz
Bit depth : 16 bits
Compression mode : Lossy
Stream size : 533 MiB (12%)
Language : English
Default : No
Forced : No
Text #1
ID : 5
Format : UTF-8
Codec ID : S_TEXT/UTF8
Codec ID/Info : UTF-8 Plain Text
Title : на речь Чаплина
Language : Russian
Default : Yes
Forced : No
Text #2
ID : 6
Format : UTF-8
Codec ID : S_TEXT/UTF8
Codec ID/Info : UTF-8 Plain Text
Title : на непереведенные фрагменты аудиодорожки №2
Language : Russian
Default : No
Forced : No
Text #3
ID : 7
Format : UTF-8
Codec ID : S_TEXT/UTF8
Codec ID/Info : UTF-8 Plain Text
Title : полные
Language : Russian
Default : No
Forced : No
Text #4
ID : 8
Format : UTF-8
Codec ID : S_TEXT/UTF8
Codec ID/Info : UTF-8 Plain Text
Language : English
Default : No
Forced : No
Menu
00:00:00.000 : en:00:00:00.000
00:06:57.708 : en:00:06:57.708
00:17:36.042 : en:00:17:36.042
00:33:31.583 : en:00:33:31.583
00:36:56.292 : en:00:36:56.292
00:46:54.917 : en:00:46:54.917
00:56:46.750 : en:00:56:46.750
01:08:15.208 : en:01:08:15.208
01:15:13.375 : en:01:15:13.375
01:28:55.375 : en:01:28:55.375
01:42:56.875 : en:01:42:56.875
01:52:26.083 : en:01:52:26.083

Скриншоты


_________________
Показать сообщения:    

Текущее время: Сегодня 19:55

Часовой пояс: GMT



Вы не можете начинать темы
Вы не можете отвечать на сообщения
Вы не можете редактировать свои сообщения
Вы не можете удалять свои сообщения
Вы не можете голосовать в опросах
Вы не можете прикреплять файлы к сообщениям
Вы не можете скачивать файлы