Важное объявление!
У Нас Все раздачи мультитрекерные, при нуле пиров в релизах, можете смело вставать на закачку!
 
Автор Сообщение

palych74

Стаж:
4 года 4 месяца
Сообщений:
80

Репутация: 21

[+] [-]
Вне форума [Профиль] [ЛС]

--Революция / Revolution--«15 years after the blackout...they will light the way.»
Год выпуска: 2012
Страна: США | NBC
Жанр: фантастика, драма
Продолжительность: ~ 42 минуты
Перевод: Профессиональный (многоголосый, закадровый) - LostFilm
Субтитры: Нет
Режиссёр: Стив Бойум, Джон Фавро-В ролях: Шэйн Каллахан, Билли Бёрк, Трэйси Спиридакос, Джанкарло Эспозито, Зак Орт, Дэвид Лайонс и др.-Описание: Вся наша жизнь зависит от электричества. Что же произойдет, если оно внезапно исчезнет? Однажды, словно по щелчку выключателя, весь мир был отброшен в темные века. Самолеты падали с небес, больницы лишались энергообеспечения, связь стала невозможной. Теперь, без всех современных технологий, кто же ответит, почему? Через 15 лет после бедствия, жизнь стала такой, какой она была до промышленной революции: семьи живут на глухих улочках, с заходом солнца зажигают фонари и свечи. Жизнь стала спокойнее и лучше. Но так ли это? За пределами небольших фермерских общин все еще таится опасность. Так жизнь молодой девушки резко меняется, когда местная милиция убивает ее отца, который каким-то неведомым для дочери образом имел связь с отключением. Это событие заставляет ее вместе с двумя спутниками отправиться в смелое путешествие, чтобы найти правду о прошлом в надежде изменить будущее.-Качество: WEB-DLRip
Формат: AVI
Видео кодек: XviD
Аудио кодек: MP3
Видео: 720x400 (16:9), 23.976 fps, ~2000 kbps, ~0.290 bit/pixel
Аудио Rus: 48 kHz, 6 ch, ~384 kbps |LostFilm|
Аудио Eng: 48 kHz, 6 ch, ~384 kbps |Original|-
Озвучка: Студия "LostFilm"
Работа со звуком: markin scor
Рип: ЛП-Все раздачи сериала / Сэмпл / ImDB / Кинопоиск-

Список серий

  • Пилот / Pilot
  • Железная хватка / Chained Heat
  • Без пощады / No Quarter

Скриншоты


MediaInfo

Общее
Полное имя : F:\Revolution.s01.rus.eng.LostFilm\Revolution.s01e01.rus.eng.LostFilm.avi
Формат : AVI
Формат/Информация : Audio Video Interleave
Размер файла : 863 Мбайт
Продолжительность : 43 м.
Общий поток : 2782 Кбит/сек
Программа кодирования : VirtualDubMod 1.5.10.2 (build 2540/release)
Библиотека кодирования : VirtualDubMod build 2540/release
Видео
Идентификатор : 0
Формат : MPEG-4 Visual
Профиль формата : Advanced Simple@L5
Параметр BVOP формата : 1
Параметр QPel формата : Нет
Параметр GMC формата : Без точки перехода
Параметр матрицы формата : Default (MPEG)
Идентификатор кодека : XVID
Идентификатор кодека/Подсказка : XviD
Продолжительность : 43 м.
Битрейт : 2000 Кбит/сек
Ширина : 720 пикселей
Высота : 400 пикселей
Соотношение сторон : 16:9
Частота кадров : 23,976 кадра/сек
Цветовое пространство : YUV
Субдискретизация насыщенности : 4:2:0
Битовая глубина : 8 бит
Тип развёртки : Прогрессивная
Метод сжатия : С потерями
Бит/(Пиксели*Кадры) : 0.290
Размер потока : 620 Мбайт (72%)
Библиотека кодирования : XviD 65
Аудио #1
Идентификатор : 1
Формат : AC-3
Формат/Информация : Audio Coding 3
Расширение режима : CM (complete main)
Параметр Endianness формата : Big
Идентификатор кодека : 2000
Продолжительность : 43 м.
Вид битрейта : Постоянный
Битрейт : 384 Кбит/сек
Каналы : 6 каналов
Расположение каналов : Front: L C R, Side: L R, LFE
Частота : 48,0 КГц
Битовая глубина : 16 бит
Метод сжатия : С потерями
Размер потока : 119 Мбайт (14%)
Выравнивание : Разделение по промежуткам
Продолжительность промежутка : 42 мс. (1,00 видеокадр)
Время предзагрузки промежутка : 500 мс.
Аудио #2
Идентификатор : 2
Формат : AC-3
Формат/Информация : Audio Coding 3
Расширение режима : CM (complete main)
Параметр Endianness формата : Big
Идентификатор кодека : 2000
Продолжительность : 43 м.
Вид битрейта : Постоянный
Битрейт : 384 Кбит/сек
Каналы : 6 каналов
Расположение каналов : Front: L C R, Side: L R, LFE
Частота : 48,0 КГц
Битовая глубина : 16 бит
Метод сжатия : С потерями
Размер потока : 119 Мбайт (14%)
Выравнивание : Разделение по промежуткам
Продолжительность промежутка : 42 мс. (1,00 видеокадр)
Время предзагрузки промежутка : 500 мс.

Внимание! Раздача ведётся путём добавления новых серий.

Внимание! Раздача ведётся путём добавления новых серий; при каждом добавлении создётся новый торрент. Чтобы начать докачку новой серии, пользователям необходимо сделать следующее:
  • Остановить скачивание.
  • Удалить старый торрент у себя из клиента (старые серии удалять не надо).
  • Скачать новый торрент и запустить его у себя в клиенте вместо старого, при этом указать клиенту путь в старую папку куда и должно происходить скачивание новых серий.
Ваш клиент при этом должен произвести хеширование (проверку) старой папки (если не производит сам - помогите ему сделать это), и будет докачивать только те серии которых у вас ещё нет. Старые серии при этом не удаляются, а продолжают раздаваться!
Eсли вы уже удалили старые серии, то предотвратить повторную закачку старых серий можно, отжав галочку в соответсвующих местах при запуске нового торрента. По возможности, желательно не удалять старые серии как можно дольше чтобы релизёр не столько продолжал раздавать старые серии, а смог сконцентрироваться на новых.
Как закачать отдельный файл из торрента или докачать ранее пропущенные файлы торрента!
Показать сообщения:    

Текущее время: Сегодня 03:52

Часовой пояс: GMT



Вы не можете начинать темы
Вы не можете отвечать на сообщения
Вы не можете редактировать свои сообщения
Вы не можете удалять свои сообщения
Вы не можете голосовать в опросах
Вы не можете прикреплять файлы к сообщениям
Вы не можете скачивать файлы
Наши партнеры: интернет магазин Ивановского трикотажа textilla.ru