Важное объявление!
У Нас Все раздачи мультитрекерные, при нуле пиров в релизах, можете смело вставать на закачку!
 
Автор Сообщение

димитри37

Стаж:
3 года 8 месяцев
Сообщений:
1237

Репутация: 127

[+] [-]
Вне форума [Профиль] [ЛС]

Революция / Revolution
1-ый Сезон

Год выпуска: 2012-2013
Страна: США
Жанр: драма, фантастика
Продолжительность: ~ 43 мин - серия
Перевод: Профессиональный (многоголосый закадровый)
Русские субтитры: нет
Режиссёры: Стив Бойум, Чарльз Бисон
Автор идеи: Eric Kripke
В ролях: Elizabeth Mitchell, Billy Burke, Giancarlo Esposito, Tim Guinee, Tracy Spiridakos, Адам Харт, Morgan Hinkleman, Эндрю Р. Каплан, Jesse Kindred, Кен Мелде, Дэн Сауфуорф, Трэйси Спиридакос
Описание: Вся наша жизнь зависит от электричества. Что же произойдет, если оно внезапно исчезнет? Однажды, словно по щелчку выключателя, весь мир был отброшен в темные века. Самолеты падали с небес, больницы лишались энергообеспечения, связь стала невозможной. Теперь, без всех современных технологий, кто же ответит, почему? Через 15 лет после бедствия, жизнь стала такой, какой она была до промышленной революции: семьи живут на глухих улочках, с заходом солнца зажигают фонари и свечи. Жизнь стала спокойнее и лучше. Но так ли это? За пределами небольших фермерских общин все еще таится опасность. Так жизнь молодой девушки резко меняется, когда местная полиция убивает ее отца, который каким-то неведомым для дочери образом имел связь с отключением. Это событие заставляет ее вместе с двумя спутниками отправиться в смелое путешествие, чтобы найти правду о прошлом в надежде изменить будущее.

Качество: WEB-DLRip
Формат: AVI
Видео кодек: XviD
Аудио кодек: MP3
Видео: XviD, 720x400, 23.976 fps, 1436 kbps, 0.210 bit/pixel
Аудио: MP3, 48000Hz stereo 128 kbps (русский)
Аудио 2: MP3, 48000Hz stereo 128 kbps (английский)

MediaInfo

General
Complete name : D:\ДЛЯ РАЗДАЧ\Revolution - Революция\Revolution\Revolution.s01e01.avi
Format : AVI
Format/Info : Audio Video Interleave
File size : 550 MiB
Duration : 43mn 21s
Overall bit rate : 1 773 Kbps
Writing application : VirtualDubMod 1.5.10.2 (build 2540/release)
Writing library : VirtualDubMod build 2540/release
Video
ID : 0
Format : MPEG-4 Visual
Format profile : Advanced Simple@L5
Format settings, BVOP : Yes
Format settings, QPel : No
Format settings, GMC : No warppoints
Format settings, Matrix : Default (MPEG)
Codec ID : XVID
Codec ID/Hint : XviD
Duration : 43mn 21s
Bit rate : 1 436 Kbps
Width : 720 pixels
Height : 400 pixels
Display aspect ratio : 16:9
Frame rate : 23.976 fps
Color space : YUV
Chroma subsampling : 4:2:0
Bit depth : 8 bits
Scan type : Progressive
Bits/(Pixel*Frame) : 0.208
Stream size : 445 MiB (81%)
Writing library : XviD 64
Audio #1
ID : 1
Format : MPEG Audio
Format version : Version 1
Format profile : Layer 3
Mode : Joint stereo
Codec ID : 55
Codec ID/Hint : MP3
Duration : 43mn 21s
Bit rate mode : Constant
Bit rate : 128 Kbps
Channel(s) : 2 channels
Sampling rate : 48.0 KHz
Stream size : 39.7 MiB (7%)
Alignment : Aligned on interleaves
Audio #2
ID : 2
Format : MPEG Audio
Format version : Version 1
Format profile : Layer 3
Mode : Joint stereo
Mode extension : MS Stereo
Codec ID : 55
Codec ID/Hint : MP3
Duration : 43mn 21s
Bit rate mode : Variable
Bit rate : 128 Kbps
Channel(s) : 2 channels
Sampling rate : 48.0 KHz
Stream size : 39.7 MiB (7%)
Alignment : Aligned on interleaves
Writing library : LAME3.90.
Encoding settings : -m j -V 4 -q 2 -lowpass 17.6 --abr 128

Скриншоты

-
Показать сообщения:    

Текущее время: Сегодня 23:26

Часовой пояс: GMT



Вы не можете начинать темы
Вы не можете отвечать на сообщения
Вы не можете редактировать свои сообщения
Вы не можете удалять свои сообщения
Вы не можете голосовать в опросах
Вы не можете прикреплять файлы к сообщениям
Вы не можете скачивать файлы