Важное объявление!
У Нас Все раздачи мультитрекерные, при нуле пиров в релизах, можете смело вставать на закачку!
 
Автор Сообщение

HUNTER

Стаж:
4 года 4 месяца
Сообщений:
56853

Репутация: 101

[+] [-]
Вне форума [Профиль] [ЛС]

Реальные пацаны. ВозвращениеСезон 7, эпизоды 1-20 из 20 --

  • Год выпуска: 2014
  • Страна: Россия, Телеканал ТНТ, "Гуд Стори Медиа"
  • Жанр: Комедийный телесериал
  • Продолжительность: по ~ 00:24:00
  • Перевод: Не требуется
  • Субтитры: Нет
  • В ролях: Николай Наумов, Антон Богданов, Владимир Селиванов, Станислав Тляшев, Зоя Бербер, Игорь Ознобихин, Марина Федункив, Валентина Мазунина, Алексей Базанов, Армен Бежанян, Мария Шекунова
  • Режиссёр: Жанна Кадникова

    Колян из Перми усиленно воровал канализационные люки, получил за это условный срок, потом решил исправиться, влюбился в богатую девушку и устроил себе жизнь веселую. Он встал на путь исправления и старается жить честно. Даже устроился на работу продавцом в салон связи, где тайно презирает напарника за обтягивающие маечки и нетрадиционный лоск. Помимо духовного роста, жизнь Коляна осложняют любовные терзания. Он встречается с девушкой, которая работает гигантской плюшевой таблеткой возле районной аптеки. А мечтает о девушке, которая учится в университете и летает на шопинг в Лондон. А еще жизнь Коляна осложняют друзья. Они не хотят, чтобы Колян исправлялся, они хотят все вместе кататься по району на тачках, лазить в общежитие к будущим медсестрам и отжимать мелочь у школьников.--
  • Качество: WEB DLRip-AVC
  • Формат: MKV
  • Видео кодек: AVC
  • Аудио кодек: AC3
  • Видео: AVC at 2100 Кбит/сек, 1024 x 576 (1.778) at 25.000 fps
  • Аудио: AC3, 2 канала, 192 Кбит/с, 48,0 КГц
-

MI

Код: copyText_writeLink('this.parentNode.parentNode.nextSibling.nextSibling');
Код:
Формат                                   : Matroska
Версия формата                           : Version 2
Размер файла                             : 386 Мбайт
Продолжительность                        : 23 м.
Общий поток                              : 2294 Кбит/сек
Дата кодирования                         : UTC 2014-09-03 11:13:11
Программа кодирования                    : mkvmerge v6.1.0 ('Old Devil') built on Mar  4 2013 09:10:42
Библиотека кодирования                   : libebml v1.3.0 + libmatroska v1.4.0
Видео
Идентификатор                            : 1
Формат                                   : AVC
Формат/Информация                        : Advanced Video Codec
Профиль формата                          : High@L4.1
Параметр CABAC формата                   : Да
Параметр ReFrames формата                : 8 кадров
Идентификатор кодека                     : V_MPEG4/ISO/AVC
Продолжительность                        : 23 м.
Битрейт                                  : 2100 Кбит/сек
Ширина                                   : 1024 пикселя
Высота                                   : 576 пикселей
Соотношение сторон                       : 16:9
Режим частоты кадров                     : Постоянный
Частота кадров                           : 25,000 кадров/сек
Цветовое пространство                    : YUV
Субдискретизация насыщенности            : 4:2:0
Битовая глубина                          : 8 бит
Тип развёртки                            : Прогрессивная
Бит/(Пиксели*Кадры)                      : 0.142
Размер потока                            : 346 Мбайт (90%)
Библиотека кодирования                   : x264 core 130 r2273 b3065e6
Настройки программы                      : cabac=1 / ref=8 / deblock=1:-1:-2 / analyse=0x3:0x133 / me=umh / subme=7 / psy=1 / psy_rd=1.00:0.10 / mixed_ref=1 / me_range=32 / chroma_me=1 / trellis=2 / 8x8dct=1 / cqm=0 / deadzone=21,11 / fast_pskip=0 / chroma_qp_offset=-3 / threads=6 / lookahead_threads=1 / sliced_threads=0 / nr=0 / decimate=1 / interlaced=0 / bluray_compat=0 / constrained_intra=0 / bframes=3 / b_pyramid=2 / b_adapt=2 / b_bias=0 / direct=3 / weightb=1 / open_gop=0 / weightp=2 / keyint=240 / keyint_min=24 / scenecut=40 / intra_refresh=0 / rc_lookahead=50 / rc=2pass / mbtree=1 / bitrate=2100 / ratetol=1.0 / qcomp=0.60 / qpmin=0 / qpmax=69 / qpstep=4 / cplxblur=20.0 / qblur=0.5 / ip_ratio=1.40 / aq=1:1.00
Default                                  : Да
Forced                                   : Нет
Аудио
Идентификатор                            : 2
Формат                                   : AC-3
Формат/Информация                        : Audio Coding 3
Расширение режима                        : CM (complete main)
Параметр Endianness формата              : Big
Идентификатор кодека                     : A_AC3
Продолжительность                        : 23 м.
Вид битрейта                             : Постоянный
Битрейт                                  : 192 Кбит/сек
Каналы                                   : 2 канала
Расположение каналов                     : Front: L R
Частота                                  : 48,0 КГц
Битовая глубина                          : 16 бит
Метод сжатия                             : С потерями
Размер потока                            : 32,3 Мбайт (8%)
Default                                  : Да
Forced                                   : Нет

Рейтинг

Скриншоты

-Источник:

_________________
Показать сообщения:    

Текущее время: Сегодня 09:49

Часовой пояс: GMT



Вы не можете начинать темы
Вы не можете отвечать на сообщения
Вы не можете редактировать свои сообщения
Вы не можете удалять свои сообщения
Вы не можете голосовать в опросах
Вы не можете прикреплять файлы к сообщениям
Вы не можете скачивать файлы
Наши партнеры: интернет магазин Ивановского трикотажа textilla.ru