Важное объявление!
У Нас Все раздачи мультитрекерные, при нуле пиров в релизах, можете смело вставать на закачку!
 
Автор Сообщение

HUNTER

Стаж:
4 года 4 месяца
Сообщений:
56734

Репутация: 101

[+] [-]
Вне форума [Профиль] [ЛС]

Расцвет мисс Джин Броди (Мисс Джин Броди в расцвете лет) / The Prime of Miss Jean Brodie
Страна: Великобритания
Студия: Twentieth Century-Fox Productions Ltd.
Жанр: драма, мелодрама, комедия
Год выпуска: 1969
Продолжительность: 01:55:45
Перевод: Профессиональный (многоголосый закадровый)
Cубтитры: Русские, английские
Оригинальная аудиодорожка: английский
Режиссер: Роналд Ним /Ronald Neame
В ролях: Мэгги Смит, Роберт Стивенс, Памела Фрэнклин, Гордон Джексон, Силия Джонсон, Дайэн Грэйсон, Джейн Карр, Ширли Стидмэн, Лавиния Ланг, Антуанетт Биггерстафф, Марго Каннингэм, Айсла Кэмерон, Рона Андерсон, Энн Уэй, Молли Уир
Описание: Действие происходит в привилегированной частной школе в Эдинбурге 1930-х. Преподавательница Джин Броди ведет класс из 6 девочек, но вместо традиционных курсов рассказывает им трагическую историю своей 1-й любви, а затем проводит занятия «по Истине, Добру и Красоте». Против мисс Броди ополчаются коллеги, но школьницы стоят за свою учительницу горой.
Мисс Броди, уверившись в собственной непогрешимости, вступает в любовную связь с учителем рисования Тедди Ллойдом и учителем музыки Гордоном Лойтером, и вдобавок ко всему открыто выражает одобрение порядку и дисциплине, царящим в фашистских странах. Ученицы меняют к ней свое отношение, называют «забавной старой девой», а одна из них, Сэнди, наводит директрису на мысль уволить Броди за опасные политические взгляды.


Сэмпл: http://multi-up.com/841212
Тип релиза: HDTVRip 720p
Контейнер: MKV
Видео: x264, 1280x688, 4887 Kbps, 23.976 fps, 0.231 bit/pixel
Аудио: русский, AC3, 2 ch, 48 KHz, 128 Kbps
Аудио 2: английский, AC3, 2 ch, 48 KHz, 128 Kbps
Формат субтитров: SRT

MediaInfo

Общее
Уникальный идентификатор : 208877399015258279550036561247744588222 (0x9D2452E1140485F8BFCDC64BB39479BE)
Полное имя : The.Prime.of.Miss.Jean.Brodie.1969.720p.HDTV.x264.sub.mkv
Формат : Matroska
Версия формата : Version 2
Размер файла : 4,24 Гбайт
Продолжительность : 1 ч. 55 м.
Режим общего битрейта : Переменный
Общий поток : 5248 Кбит/сек
Дата кодирования : UTC 2013-03-10 10:52:36
Программа кодирования : mkvmerge v5.2.1 ('A Far Off Place') built on Jan 2 2012 23:21:10
Библиотека кодирования : libebml v1.2.3 + libmatroska v1.3.0
Видео
Идентификатор : 1
Формат : AVC
Формат/Информация : Advanced Video Codec
Профиль формата : High@L4.0
Параметр CABAC формата : Да
Параметр ReFrames формата : 5 кадров
Идентификатор кодека : V_MPEG4/ISO/AVC
Продолжительность : 1 ч. 55 м.
Вид битрейта : Переменный
Битрейт : 4887 Кбит/сек
Номинальный битрейт : 5200 Кбит/сек
Максимальный битрейт : 40,0 Мбит/сек
Ширина : 1280 пикселей
Высота : 688 пикселей
Соотношение сторон : 1,85:1
Частота кадров : 23,976 кадра/сек
Цветовое пространство : YUV
Субдискретизация насыщенности : 4:2:0
Битовая глубина : 8 бит
Тип развёртки : Прогрессивная
Бит/(Пиксели*Кадры) : 0.231
Размер потока : 3,95 Гбайт (93%)
Библиотека кодирования : x264 core 120
Настройки программы : cabac=1 / ref=6 / deblock=1:-3:-3 / analyse=0x3:0x133 / me=umh / subme=8 / psy=1 / psy_rd=1.00:0.00 / mixed_ref=1 / me_range=16 / chroma_me=1 / trellis=2 / 8x8dct=1 / cqm=0 / deadzone=21,11 / fast_pskip=1 / chroma_qp_offset=-2 / threads=6 / sliced_threads=0 / nr=0 / decimate=1 / interlaced=0 / bluray_compat=0 / constrained_intra=0 / bframes=6 / b_pyramid=1 / b_adapt=2 / b_bias=0 / direct=1 / weightb=1 / open_gop=0 / weightp=2 / keyint=250 / keyint_min=25 / scenecut=40 / intra_refresh=0 / rc_lookahead=50 / rc=2pass / mbtree=1 / bitrate=5200 / ratetol=1.0 / qcomp=0.60 / qpmin=3 / qpmax=69 / qpstep=4 / cplxblur=20.0 / qblur=0.5 / ip_ratio=1.40 / aq=1:1.0
Default : Да
Forced : Нет
Основные цвета : BT.709-5, BT.1361, IEC 61966-2-4, SMPTE RP177
Характеристики трансфера : BT.709-5, BT.1361
Коэффициенты матрицы : BT.709-5, BT.1361, IEC 61966-2-4 709, SMPTE RP177
Аудио #1
Идентификатор : 2
Формат : AC-3
Формат/Информация : Audio Coding 3
Расширение режима : CM (complete main)
Параметр Endianness формата : Big
Идентификатор кодека : A_AC3
Продолжительность : 1 ч. 55 м.
Вид битрейта : Постоянный
Битрейт : 128 Кбит/сек
Каналы : 2 канала
Расположение каналов : Front: L R
Частота : 48,0 КГц
Битовая глубина : 16 бит
Метод сжатия : С потерями
Задержка видео : 4 мс.
Размер потока : 106 Мбайт (2%)
Язык : Russian
Default : Да
Forced : Нет
Аудио #2
Идентификатор : 3
Формат : AC-3
Формат/Информация : Audio Coding 3
Расширение режима : CM (complete main)
Параметр Endianness формата : Big
Идентификатор кодека : A_AC3
Продолжительность : 1 ч. 55 м.
Вид битрейта : Постоянный
Битрейт : 128 Кбит/сек
Каналы : 2 канала
Расположение каналов : Front: L R
Частота : 48,0 КГц
Битовая глубина : 16 бит
Метод сжатия : С потерями
Задержка видео : 4 мс.
Размер потока : 106 Мбайт (2%)
Язык : English
Default : Нет
Forced : Нет
Текст #1
Идентификатор : 4
Формат : UTF-8
Идентификатор кодека : S_TEXT/UTF8
Идентификатор кодека/Информация : UTF-8 Plain Text
Язык : Russian
Default : Да
Forced : Нет
Текст #2
Идентификатор : 5
Формат : UTF-8
Идентификатор кодека : S_TEXT/UTF8
Идентификатор кодека/Информация : UTF-8 Plain Text
Язык : English
Default : Нет
Forced : Нет

Скриншоты


_________________
Показать сообщения:    

Текущее время: Сегодня 16:53

Часовой пояс: GMT



Вы не можете начинать темы
Вы не можете отвечать на сообщения
Вы не можете редактировать свои сообщения
Вы не можете удалять свои сообщения
Вы не можете голосовать в опросах
Вы не можете прикреплять файлы к сообщениям
Вы не можете скачивать файлы