Важное объявление!
У Нас Все раздачи мультитрекерные, при нуле пиров в релизах, можете смело вставать на закачку!
 
Автор Сообщение

HUNTER

Стаж:
4 года 4 месяца
Сообщений:
56822

Репутация: 101

[+] [-]
Вне форума [Профиль] [ЛС]

Рассчитаемся после смерти / Dead Reckoning-
Год выпуска: 1947
Страна: США
Жанр: драма, триллер, нуар
Продолжительность: 01:40:28
Перевод: Профессиональный (многоголосый закадровый) Film Prestige
Оригинальная аудиодорожка: Английская
Cубтитры: Русские (FP), английские-Режиссер: Джон Кромвель / John Cromwell
В ролях: Хамфри Богарт, Лизабет Скотт, Моррис Карновски, Чарльз Кейн, Уильям Принс, Марвин Миллер, Уоллес Форд, Джеймс Белл, Джордж Чэндлер-Описание:
Шикарный фильм-нуар, снятый Джоном Кромуэллом с участием Хамфри Богарта и красавицы Лизабет Скотт.
Отважные парашютисты-десантники Рип Мердок и Джонни Дрейк возвращаются с фронта, Конгресс США представил их к наградам, и на вокзале их встречают журналисты, собирающиеся опубликовать материал о героях войны. Завидев репортеров, Джонни неожиданно в панике бежит, Рип начинает его поиски и попадает в такой переплет, по сравнению с которым война — прогулка: Следы друга приводят Рипа в маленький городок Галф Сити, откуда Джонни бежал 2 года назад после обвинения в убийстве некоего Чендлера, и куда, похоже, вновь вернулся сейчас. Что же заставило его так рисковать, ведь полиция до сих пор мечтает усадить его за решетку: то ли желание найти настоящего убийцу и снять с себя подозрения, то ли страсть к вдове погибшего — сногсшибательной красотке Корэл Чендлер? Оказавшись в Галф Сити, Рип оказывается в самом эпицентре череды убийств и, преследуемый и полицией и гангстерами, вынужден яростно сражаться за свою жизнь...-За дорожку спасибо intellect.
| IMDb | Сэмпл-Качество: WEB-DL 720p (SbR)
Контейнер: MKV
Видео: AVC, 990x720 (1.37:1), 23.976 fps, 4098 kbps
Аудио 1: Русский AC3, 2.0, 48 kHz, 192 kbps
Аудио 2: Английский AC3, 2.0, 48 kHz, 192 kbps
Аудио 3: Английский AAC, 2.0, 48 kHz, 116 kbps
Формат субтитров: softsub (SRT)
СкриншотыMI
General
Unique ID : 248777618146022554419181862422169377579 (0xBB28D390CA56264FB2D7B0A83451DB2B)
Complete name : Dead.Reckoning.1947.720p.WEB-DL.H.264-SbR.mkv
Format : Matroska
Format version : Version 2
File size : 3.23 GiB
Duration : 1h 40mn
Overall bit rate : 4 602 Kbps
Movie name : Dead Reckoning / Рассчитаемся после смерти (1947) – RuTracker
Encoded date : UTC 2014-06-25 19:02:14
Writing application : mkvmerge v7.0.0 ('Where We Going') 64bit built on Jun 9 2014 15:16:27
Writing library : libebml v1.3.0 + libmatroska v1.4.1
Attachment : Yes
Video
ID : 1
Format : AVC
Format/Info : Advanced Video Codec
Format profile : High@L3.1
Format settings, CABAC : No
Format settings, ReFrames : 2 frames
Codec ID : V_MPEG4/ISO/AVC
Duration : 1h 40mn
Width : 990 pixels
Height : 720 pixels
Display aspect ratio : 1.375
Frame rate mode : Constant
Frame rate : 23.976 fps
Color space : YUV
Chroma subsampling : 4:2:0
Bit depth : 8 bits
Scan type : Progressive
Title : Dead.Reckoning.1947.720p.WEB-DL.AAC2.0.H.264-SbR.mkv
Language : English
Default : Yes
Forced : No
Color primaries : BT.709
Transfer characteristics : BT.709
Matrix coefficients : BT.709
Audio #1
ID : 2
Format : AC-3
Format/Info : Audio Coding 3
Mode extension : CM (complete main)
Format settings, Endianness : Big
Codec ID : A_AC3
Duration : 1h 40mn
Bit rate mode : Constant
Bit rate : 192 Kbps
Channel(s) : 2 channels
Channel positions : Front: L R
Sampling rate : 48.0 KHz
Bit depth : 16 bits
Compression mode : Lossy
Stream size : 138 MiB (4%)
Title : MVO – Film Prestige
Language : Russian
Default : Yes
Forced : No
Audio #2
ID : 3
Format : AC-3
Format/Info : Audio Coding 3
Mode extension : CM (complete main)
Format settings, Endianness : Big
Codec ID : A_AC3
Duration : 1h 40mn
Bit rate mode : Constant
Bit rate : 192 Kbps
Channel(s) : 2 channels
Channel positions : Front: L R
Sampling rate : 48.0 KHz
Bit depth : 16 bits
Compression mode : Lossy
Stream size : 138 MiB (4%)
Title : Original (DVD)
Language : English
Default : No
Forced : No
Audio #3
ID : 4
Format : AAC
Format/Info : Advanced Audio Codec
Format profile : LC
Codec ID : A_AAC
Duration : 1h 40mn
Channel(s) : 2 channels
Channel positions : Front: L R
Sampling rate : 48.0 KHz
Compression mode : Lossy
Title : Original (iTunes)
Language : English
Default : No
Forced : No
Text #1
ID : 5
Format : UTF-8
Codec ID : S_TEXT/UTF8
Codec ID/Info : UTF-8 Plain Text
Title : Film Prestige
Language : Russian
Default : No
Forced : No
Text #2
ID : 6
Format : UTF-8
Codec ID : S_TEXT/UTF8
Codec ID/Info : UTF-8 Plain Text
Language : English
Default : No
Forced : No
Text #3
ID : 7
Format : UTF-8
Codec ID : S_TEXT/UTF8
Codec ID/Info : UTF-8 Plain Text
Title : SDH
Language : English
Default : No
Forced : No
Menu
00:00:00.000 : en:Start
00:01:16.000 : en:Rip Murdock's confession
00:04:43.000 : en:Dreaming about a blonde
00:08:48.000 : en:A final salute
00:10:28.000 : en:Johnny checks in
00:12:21.000 : en:9/2/1939 12:00:00 AM
00:14:45.000 : en:The County Morgue
00:19:08.000 : en:Louis Ord
00:21:10.000 : en:Mrs. Coral Chandler
00:24:00.000 : en:"Either It's Love Or It Isn't"
00:26:08.000 : en:Testing pure
00:29:23.000 : en:Dusty's roulette system
00:31:41.000 : en:Rip gets even
00:33:47.000 : en:TNT highballs
00:36:55.000 : en:Strange bedfellows
00:46:32.000 : en:Dusty road trip
00:49:42.000 : en:Fancy luncheon tripe
00:53:45.000 : en:McGee
00:57:15.000 : en:Taking Louis to the beach
01:02:24.000 : en:The coded letter
01:05:16.000 : en:A bruised guest
01:10:41.000 : en:Murdock's escape
01:12:27.000 : en:Coral confesses
01:20:19.000 : en:Packed for paradise
01:25:42.000 : en:A dumb play
01:28:33.000 : en:Geronimo
01:35:22.000 : en:"You're going to fry."
01:39:01.000 : en:All square with John Law

_________________
Показать сообщения:    

Текущее время: Сегодня 07:04

Часовой пояс: GMT



Вы не можете начинать темы
Вы не можете отвечать на сообщения
Вы не можете редактировать свои сообщения
Вы не можете удалять свои сообщения
Вы не можете голосовать в опросах
Вы не можете прикреплять файлы к сообщениям
Вы не можете скачивать файлы