Важное объявление!
У Нас Все раздачи мультитрекерные, при нуле пиров в релизах, можете смело вставать на закачку!
 
Автор Сообщение

HUNTER

Стаж:
4 года 4 месяца
Сообщений:
56733

Репутация: 101

[+] [-]
Вне форума [Профиль] [ЛС]

Рассказы-
Страна: Россия
Студия: R.U. Media
Жанр: драма, комедия
Год выпуска: 2012
Продолжительность: 01:50:17-Cубтитры: русские, английские, французские, немецкие
Оригинальная аудиодорожка: русский-Режиссер: Михаил Сегал
В ролях: Андрей Мерзликин, Игорь Угольников, Тамара Миронова, Константин Юшкевич, Дарья Носик, Любовь Новикова, Владислав Лешкевич, Сергей Фетисов, Елена Нестерова, Василий Мичков-Описание: Рукопись молодого писателя попадает в литературное издательство и начинает влиять на жизнь любого, кто откроет её и прочтет хотя бы страницу. Четыре рассказа из рукописи - это четыре истории с непредсказуемой развязкой.- -Тип релиза: BDRip 720p
Контейнер: MKV-Видео: AVC; 1280x720; 16:9; 24,000 fps; 6124 kbps
Аудио: Russian (AC3, 2 ch, 640 kbps)
Формат субтитров: softsub (SRT)

MediaInfo

Общее
Уникальный идентификатор : 205371511603687378232661181080712227933 (0x9A811D48CDFF5B458FDF5CB849EFAC5D)
Полное имя : F:\для рутрахера\Rasskazy.BDRip.720p.mkv
Формат : Matroska
Размер файла : 5,21 Гбайт
Продолжительность : 1 ч. 50 м.
Общий поток : 6763 Кбит/сек
Дата кодирования : UTC 2013-04-04 16:38:11
Программа кодирования : mkvmerge v5.8.0 ('No Sleep / Pillow') built on Sep 2 2012 15:37:04
Библиотека кодирования : libebml v1.2.3 + libmatroska v1.3.0
Видео
Идентификатор : 1
Формат : AVC
Формат/Информация : Advanced Video Codec
Профиль формата : Main@L3.1
Параметр CABAC формата : Да
Параметр ReFrames формата : 5 кадров
Идентификатор кодека : V_MPEG4/ISO/AVC
Продолжительность : 1 ч. 50 м.
Битрейт : 6124 Кбит/сек
Ширина : 1280 пикс.
Высота : 720 пикс.
Соотношение сторон : 16:9
Частота кадров : 24,000 кадр/сек
Цветовое пространство : YUV
Подвыборка цветности : 4:2:0
Битовая глубина : 8 бит
Тип развёртки : Прогрессивная
Бит/(Пиксели*Кадры) : 0.277
Размер потока : 4,61 Гбайт (89%)
Библиотека кодирования : x264 core 130 r2273 b3065e6
Настройки программы : cabac=1 / ref=5 / deblock=1:-1:-1 / analyse=0x1:0x111 / me=esa / subme=11 / psy=1 / psy_rd=1.00:0.15 / mixed_ref=1 / me_range=36 / chroma_me=1 / trellis=2 / 8x8dct=0 / cqm=0 / deadzone=21,11 / fast_pskip=1 / chroma_qp_offset=-3 / threads=6 / lookahead_threads=1 / sliced_threads=0 / nr=0 / decimate=1 / interlaced=0 / bluray_compat=0 / constrained_intra=0 / bframes=3 / b_pyramid=2 / b_adapt=2 / b_bias=0 / direct=3 / weightb=1 / open_gop=0 / weightp=2 / keyint=240 / keyint_min=24 / scenecut=40 / intra_refresh=0 / rc_lookahead=50 / rc=2pass / mbtree=1 / bitrate=6124 / ratetol=1.0 / qcomp=0.60 / qpmin=0 / qpmax=69 / qpstep=4 / cplxblur=20.0 / qblur=0.5 / ip_ratio=1.40 / aq=1:1.00
Язык : English
Аудио
Идентификатор : 2
Формат : AC-3
Формат/Информация : Audio Coding 3
Расширение режима : CM (complete main)
Идентификатор кодека : A_AC3
Продолжительность : 1 ч. 50 м.
Вид битрейта : Постоянный
Битрейт : 640 Кбит/сек
Каналы : 2 канала
Расположение каналов : Front: L R
Частота : 48,0 КГц
Битовая глубина : 16 бит
Метод сжатия : С потерями
Размер потока : 505 Мбайт (9%)
Язык : Russian
Текст #1
Идентификатор : 3
Формат : UTF-8
Идентификатор кодека : S_TEXT/UTF8
Идентификатор кодека/Информация : UTF-8 Plain Text
Язык : Russian
Текст #2
Идентификатор : 4
Формат : UTF-8
Идентификатор кодека : S_TEXT/UTF8
Идентификатор кодека/Информация : UTF-8 Plain Text
Язык : English
Текст #3
Идентификатор : 5
Формат : UTF-8
Идентификатор кодека : S_TEXT/UTF8
Идентификатор кодека/Информация : UTF-8 Plain Text
Язык : French
Текст #4
Идентификатор : 6
Формат : UTF-8
Идентификатор кодека : S_TEXT/UTF8
Идентификатор кодека/Информация : UTF-8 Plain Text
Язык : German
Меню
00:00:00.000 : en:00:00:00.000
00:09:34.167 : en:00:09:34.167
00:22:31.167 : en:00:22:31.167
00:32:15.792 : en:00:32:15.792
00:46:23.000 : en:00:46:23.000
00:59:25.958 : en:00:59:25.958
01:17:34.417 : en:01:17:34.417
01:32:22.250 : en:01:32:22.250

Скриншоты


_________________
Показать сообщения:    

Текущее время: Сегодня 02:11

Часовой пояс: GMT



Вы не можете начинать темы
Вы не можете отвечать на сообщения
Вы не можете редактировать свои сообщения
Вы не можете удалять свои сообщения
Вы не можете голосовать в опросах
Вы не можете прикреплять файлы к сообщениям
Вы не можете скачивать файлы