Важное объявление!
У Нас Все раздачи мультитрекерные, при нуле пиров в релизах, можете смело вставать на закачку!
 
Автор Сообщение

HUNTER

Стаж:
4 года 4 месяца
Сообщений:
56734

Репутация: 101

[+] [-]
Вне форума [Профиль] [ЛС]

Рассвет Человечества / Dawn of Humanity-
Дата/Год выпуска: 2015
Страна: США | National Geographic Studios | NOVA/WGBH Boston
Жанр: Документальный
Продолжительность: 0:44:00
Перевод: Профессиональный (одноголосый закадровый) | Студия "Велес"
Режиссер: Грэхэм Таунсли / Graham Townsley-Описание: Что делает нас людьми и откуда мы взялись? После появления теории эволюции Дарвина, ученые пытались определить как выглядели первые существа, покинувшие мир обезьян и вступившие в мир человека. За последние 50 лет новые находки археологов помогли заполнить часть пробелов в истории эволюции человека.-Автор рипа: lrn
Сведение русской и английской дорожек: nyctalus@HDCLUB
Сэмпл: sendfile-качество: HDTVRip-AVC
формат: MKV
Видео: 1024x576 (16:9), 25,000 fps, H264, ~1500 kbps avg, ~0.102 bit/pixel
Аудио#1: 48 kHz, AC3 Dolby Digital, 2/0 (L,R) ch, ~192.00 kbps avg | Студия "Велес"
Аудио#2: 48 kHz, AC3 Dolby Digital, 2/0 (L,R) ch, ~192.00 kbps avg | Английский
Аудио#3: 48 kHz, AC3 Dolby Digital, 2/0 (L,R) ch, ~384.00 kbps avg | Немецкий-

MediaInfo

GeneralUnique ID : 217950937868689330277406448271145559524 (0xA3F7D2E240F950F690E88422DFA7E5E4)Complete name : E:\uTorrent.Temp\Temp\Dawn.of.Humanity.2015.HDTVRip-AVC.x264-RUS-ENG-GER-lrn.mkvFormat : MatroskaFormat version : Version 4 / Version 2File size : 714 MiBDuration : 44mn 0sOverall bit rate : 2 270 KbpsMovie name : Dawn.of.Humanity.2015.HDTVRip-AVC.x264-RUS-ENG-GER-lrnEncoded date : UTC 2010-02-22 21:41:31Writing application : mkvmerge v5.9.0 ('On The Loose') built on Dec 9 2012 15:37:01Writing library : libebml v1.3.0 + libmatroska v1.4.0
VideoID : 1Format : AVCFormat/Info : Advanced Video CodecFormat profile : High@L4.1Format settings, CABAC : YesFormat settings, ReFrames : 8 framesCodec ID : V_MPEG4/ISO/AVCDuration : 44mn 0sBit rate : 1 500 KbpsWidth : 1 024 pixelsHeight : 576 pixelsDisplay aspect ratio : 16:9Frame rate mode : ConstantFrame rate : 25.000 fpsColor space : YUVChroma subsampling : 4:2:0Bit depth : 8 bitsScan type : ProgressiveBits/(Pixel*Frame) : 0.102Stream size : 459 MiB (64%)Writing library : x264 core 148 r2638 7599210Encoding settings : cabac=1 / ref=8 / deblock=1:-3:-3 / analyse=0x3:0x133 / me=umh / subme=9 / psy=1 / psy_rd=1.00:0.00 / mixed_ref=1 / me_range=32 / chroma_me=1 / trellis=2 / 8x8dct=1 / cqm=0 / deadzone=21,11 / fast_pskip=1 / chroma_qp_offset=-2 / threads=12 / lookahead_threads=2 / sliced_threads=0 / nr=0 / decimate=1 / interlaced=0 / bluray_compat=0 / constrained_intra=0 / bframes=8 / b_pyramid=2 / b_adapt=2 / b_bias=0 / direct=3 / weightb=1 / open_gop=0 / weightp=2 / keyint=250 / keyint_min=25 / scenecut=40 / intra_refresh=0 / rc_lookahead=50 / rc=2pass / mbtree=1 / bitrate=1500 / ratetol=1.0 / qcomp=0.60 / qpmin=0 / qpmax=69 / qpstep=4 / cplxblur=20.0 / qblur=0.5 / vbv_maxrate=62500 / vbv_bufsize=78125 / nal_hrd=none / filler=0 / ip_ratio=1.40 / aq=1:1.00Default : YesForced : NoStatistics Tags Issue : mkvmerge v8.5.2 ('Crosses') 32bit 2016-01-07 10:33:55 / mkvmerge v5.9.0 ('On The Loose') built on Dec 9 2012 15:37:01 2010-02-22 21:41:31FromStats_BitRate : 1499865FromStats_Duration : 00:44:00.040000000FromStats_FrameCount : 66001FromStats_StreamSize : 494963276
Audio #1ID : 2Format : AC-3Format/Info : Audio Coding 3Mode extension : CM (complete main)Format settings, Endianness : BigCodec ID : A_AC3Duration : 44mn 0sBit rate mode : ConstantBit rate : 192 KbpsChannel(s) : 2 channelsChannel positions : Front: L RSampling rate : 48.0 KHzFrame rate : 31.250 fps (1536 spf)Compression mode : LossyStream size : 60.4 MiB (8%)Language : RussianDefault : YesForced : Yes
Audio #2ID : 3Format : AC-3Format/Info : Audio Coding 3Mode extension : CM (complete main)Format settings, Endianness : BigCodec ID : A_AC3Duration : 44mn 0sBit rate mode : ConstantBit rate : 192 KbpsChannel(s) : 2 channelsChannel positions : Front: L RSampling rate : 48.0 KHzFrame rate : 31.250 fps (1536 spf)Compression mode : LossyStream size : 60.4 MiB (8%)Language : EnglishDefault : NoForced : No
Audio #3ID : 4Format : AC-3Format/Info : Audio Coding 3Mode extension : CM (complete main)Format settings, Endianness : BigCodec ID : A_AC3Duration : 44mn 0sBit rate mode : ConstantBit rate : 384 KbpsChannel(s) : 2 channelsChannel positions : Front: L RSampling rate : 48.0 KHzFrame rate : 31.250 fps (1536 spf)Compression mode : LossyStream size : 121 MiB (17%)Language : GermanDefault : NoForced : No

x264 log

raw [info]: 1024x576p 1:1 @ 25/1 fps (cfr)x264 [info]: using SAR=1/1x264 [info]: using cpu capabilities: MMX2 SSE2Fast SSSE3 SSE4.2 AVXx264 [info]: profile High, level 4.1x264 [info]: frame I:467 Avg QP:18.34 size: 64268x264 [info]: frame P:16927 Avg QP:21.60 size: 16702x264 [info]: frame B:48607 Avg QP:24.83 size: 3749x264 [info]: consecutive B-frames: 3.2% 4.0% 8.4% 45.2% 19.5% 16.5% 1.7% 1.1% 0.5%x264 [info]: mb I I16..4: 11.3% 72.7% 16.0%x264 [info]: mb P I16..4: 2.7% 9.2% 0.9% P16..4: 44.9% 12.5% 11.4% 0.4% 0.2% skip:17.8%x264 [info]: mb B I16..4: 0.2% 0.6% 0.1% B16..8: 35.2% 4.7% 1.1% direct: 3.4% skip:54.8% L0:40.7% L1:50.3% BI: 9.0%x264 [info]: 8x8 transform intra:72.2% inter:68.2%x264 [info]: direct mvs spatial:95.2% temporal:4.8%x264 [info]: coded y,uvDC,uvAC intra: 64.1% 64.1% 22.4% inter: 13.8% 14.6% 0.5%x264 [info]: i16 v,h,dc,p: 25% 18% 8% 49%x264 [info]: i8 v,h,dc,ddl,ddr,vr,hd,vl,hu: 8% 8% 7% 9% 14% 14% 14% 12% 13%x264 [info]: i4 v,h,dc,ddl,ddr,vr,hd,vl,hu: 10% 7% 4% 9% 15% 15% 14% 11% 14%x264 [info]: i8c dc,h,v,p: 38% 27% 18% 17%x264 [info]: Weighted P-Frames: Y:5.8% UV:2.6%x264 [info]: ref P L0: 54.3% 14.2% 15.4% 4.7% 3.9% 2.8% 2.7% 1.7% 0.3% 0.0%x264 [info]: ref B L0: 84.1% 8.8% 3.3% 1.5% 1.1% 0.7% 0.4%x264 [info]: ref B L1: 95.9% 4.1%x264 [info]: kb/s:1499.86encoded 66001 frames, 28.18 fps, 1499.86 kb/s

Скриншоты

-

_________________
Показать сообщения:    

Текущее время: Сегодня 13:06

Часовой пояс: GMT



Вы не можете начинать темы
Вы не можете отвечать на сообщения
Вы не можете редактировать свои сообщения
Вы не можете удалять свои сообщения
Вы не можете голосовать в опросах
Вы не можете прикреплять файлы к сообщениям
Вы не можете скачивать файлы