Важное объявление!
У Нас Все раздачи мультитрекерные, при нуле пиров в релизах, можете смело вставать на закачку!
 
Автор Сообщение

HUNTER

Стаж:
4 года 4 месяца
Сообщений:
56808

Репутация: 101

[+] [-]
Вне форума [Профиль] [ЛС]

-Расписание судеб--
--Год выпуска: 2007
Выпущено: Россия ,Панорама
Жанр: Авантюрно - приключенческая мелодрама
Продолжительность: 00:46:00
Серии: 1-12
Количество серий в сезоне: 12
Перевод :Не требуется
Субтитры: Нет--Режиссер: Александр Бурцев--В ролях: Владислав Юрчекевич, Борис Бедросов, Виталий Коваленко, Игорь Гордин, Игорь Шибанов, Полина Фрадкина, Татьяна Снисаренко, Юлия Рудина, Анна Миклош, Геннадий Залогин, Анатолий Узденский, Анна Гордейчик, Андрей Смелов, Елена Попова, Людмила Егорова, Александр Баргман, Константин Воробьев, Андрей Павловец, Наталья Шамина, Вадим Гущин, Эрик Кения, Юрий Герцман, Николь Муньешули, Оксана Афанасьева, Карина Разумовская, Антон Багров, Варвара Маркевич, Анатолий Журавин, Николай Дик, Рита Смирнова--Описание: Действие фильма охватывает большой период с середины шестидесятых годов прошлого века до наших дней. Когда ленинградцы, братья Смирновы были мальчишками, они лишились отца: Смирнов старший ушёл на рыбалку и был унесён оторвавшейся льдиной в открытое море…
Жили в то время ребята с матерью в обычной коммуналке. Павел и Пётр росли абсолютно непохожими друг на друга. Павел рос серьёзным мальчиком, стремящимся к знаниям. Пётр тоже хотел узнать побольше, но он старался учиться тому, что давало немедленную выгоду. 1971 год. Школьник Петя впервые садится играть в домино со взрослыми на деньги. И выясняется, что лучше Пети здесь в эту игру не играет никто.
И вот мужики уже с уважением называют его Пётр Сергеевич, у него появился постоянный заработок. С домино Петя переходит на карты, и пока брат в школе пишет за него сочинения, он зарабатывает им на джинсы и матери на продукты. Милиция предлагает Пете сотрудничество, и он помогает им достойно встретить проверяющего из центра, которому по их заданию проигрывает немалые деньги. И вскоре он получает ответный подарок: милиция спасает его от уголовников.
Закончена школа и Павел поступает в политехнический, а Петя идёт в горный институт, поступление в который ему гарантировано одним из чиновников за проигрыш в карты. Позанимался Петя и в школе самбо, что очень помогло ему в рискованных ситуациях, связанных с криминальной игрой на деньги. И вот он уже жених.
Петя становится мужем ветреной дочери крупного чиновника из города нефтяников Верхненартовска. Тесть Иван Кузьмич обещает Пете высокую должность на нефтяном производстве. На свадьбе у Пети находит свою любовь и Павел: он влюбляется в работницу сберкассы Нонну…
--Качество: DVВRip-AVC
Формат: MPEG-4
Видео кодек: H264
Видео: 3030Кбит/сек,720х576(5/4),в 25.000кадр/сек,AVC(PAL)(Baseline@L3.0)(1Ref Frames)
Аудио кодек: AAC
Аудио Russian Dolby Digital 5.1: 456Кбит/сек,44.1КГц,6каналов,AAC,(Version4)(LC)--

Рейтинги

MediaInfo

бщее
Полное имя : D:\Б О Е В И К И\Raspisanie_Sudeb_2007_Е01_-_E12_rus[Russia]_DD5.1_х264_Nikolai.Baranov_DVBRipAVC\Raspisanie_Sudeb_2007_Е01_rus[Russia]_DD5.1_х264_Nikolai.Baranov_DVBRipAVC.mp4
Формат : MPEG-4
Профиль формата : Base Media
Идентификатор кодека : isom
Размер файла : 1,16 Гбайт
Продолжительность : 47 м.
Режим общего битрейта : Переменный
Общий поток : 3491 Кбит/сек
Дата кодирования : UTC 2013-01-03 16:54:58
Дата пометки : UTC 2013-01-03 16:54:58
Программа кодирования : Lavf51.12.1
Видео
Идентификатор : 1
Формат : AVC
Формат/Информация : Advanced Video Codec
Профиль формата : [url=mailto:Baseline@L3.0]Baseline@L3.0[/url]
Параметр CABAC формата : Нет
Параметр ReFrames формата : 1 кадр
Параметр GOP формата : M=1, N=12
Идентификатор кодека : avc1
Идентификатор кодека/Информация : Advanced Video Coding
Продолжительность : 47 м.
Вид битрейта : Переменный
Битрейт : 3030 Кбит/сек
Максимальный битрейт : 4350 Кбит/сек
Ширина : 720 пикселей
Высота : 576 пикселей
Соотношение сторон : 5:4
Режим частоты кадров : Постоянный
Частота кадров : 25,000 кадров/сек
Частота кадров в оригинале : 24,000 кадра/сек
Стандарт вещания : PAL
Цветовое пространство : YUV
Субдискретизация насыщенности : 4:2:0
Битовая глубина : 8 бит
Тип развёртки : Прогрессивная
Бит/(Пиксели*Кадры) : 0.292
Размер потока : 1,00 Гбайт (87%)
Дата кодирования : UTC 2013-01-03 16:54:58
Дата пометки : UTC 2013-01-03 16:54:58
Аудио
Идентификатор : 2
Формат : AAC
Формат/Информация : Advanced Audio Codec
Профиль формата : LC
Идентификатор кодека : 40
Продолжительность : 47 м.
Вид битрейта : Переменный
Битрейт : 456 Кбит/сек
Каналы : 6 каналов
Расположение каналов : Front: L C R, Side: L R, LFE
Частота : 44,1 КГц
Метод сжатия : С потерями
Размер потока : 155 Мбайт (13%)
Дата кодирования : UTC 2013-01-03 16:54:58
Дата пометки : UTC 2013-01-03 16:54:58
---- ---Внимание!!! 06.01. 2013.Перераздача.Заменён эпизод 5 .ОБНОВИТЕ ТОРЕНТ ФАЙЛ.ПРИЯТНОГО ПРОСМОТРА. --Релиз от: Nikolai.Baranov. --

_________________
Показать сообщения:    

Текущее время: Сегодня 11:35

Часовой пояс: GMT



Вы не можете начинать темы
Вы не можете отвечать на сообщения
Вы не можете редактировать свои сообщения
Вы не можете удалять свои сообщения
Вы не можете голосовать в опросах
Вы не можете прикреплять файлы к сообщениям
Вы не можете скачивать файлы