Важное объявление!
У Нас Все раздачи мультитрекерные, при нуле пиров в релизах, можете смело вставать на закачку!
 
Автор Сообщение

HUNTER

Стаж:
4 года 4 месяца
Сообщений:
56722

Репутация: 101

[+] [-]
Вне форума [Профиль] [ЛС]

Раскаленная Луна / High Moon
Страна: Канада
Студия: Halmi Company, The, Lark Productions, Universal Cable Productions
Жанр: фантастика
Год выпуска: 2014
Продолжительность: 01:20:03
Перевод: Любительский (двухголосый закадровый) [PashaUp & ИриСКА], перевод на русский [М.Васильев]
Cубтитры: русские
Оригинальная аудиодорожка: английский
Режиссер: Адам Кэйн / Adam Kane
В ролях: Джонатан Такер, Крис Диамантополос, Дэйна Дэвис, Черити Уэйкфилд, Джэйк Сендвиг, Даррен Шалави, Гари Чок, Констанс Ву, Кирби Мороу, Эрик Брекер.
Описание:В далеком будущем земляне колонизировали Луну и начали добычу полезных ископаемых. Крупные корпорации, принадлежащие различным странам, ведут борьбу за доступ к богатым месторождениям. Американцы не доверяют русским, те пытаются перехитрить американцев, все подозревают Индию и ненавидят корпорацию «Галактический странник», монополизировавшую поставки кислорода на Луну. Когда на территории, контролируемой США, происходит взрыв, правительство решает, что это теракт и отправляет на Луну секретного агента для проведения расследования…
Доп. информация: Телевизионный фильм. Производство канала SyFy
Сэмпл: http://multi-up.com/1018406
Качество видео: HDTVRip
Формат видео: MKV
Видео: AVC, 1280x720 (16:9), 23.976 fps, 2363 kb/s (0.107bit/pixel)
Аудио 1: Russian: AC3, 48.0 KHz, 384 kb/s (2 ch)
Аудио 2: English: AC3, 48.0 KHz, 384 kb/s (6 ch)
Формат субтитров: softsub (SRT)

MediaInfo

General
Unique ID : 199803331586672369953125770595127838371 (0x9650B8D0589F5A9A8492BF9115ACC6A3)
Complete name : G:\Film's\Ski-Fi\High.Moon.2014.L2.HDTV.720p.mkv
Format : Matroska
Format version : Version 4 / Version 2
File size : 1.79 GiB
Duration : 1h 20mn
Overall bit rate : 3 195 Kbps
Encoded date : UTC 2014-12-08 23:39:15
Writing application : mkvmerge v6.1.0 ('Old Devil') built on Mar 4 2013 09:10:42
Writing library : libebml v1.3.0 + libmatroska v1.4.0
Video
ID : 1
Format : AVC
Format/Info : Advanced Video Codec
Format profile : High@L4.1
Format settings, CABAC : Yes
Format settings, ReFrames : 5 frames
Codec ID : V_MPEG4/ISO/AVC
Duration : 1h 20mn
Bit rate : 2 363 Kbps
Width : 1 280 pixels
Height : 720 pixels
Display aspect ratio : 16:9
Frame rate mode : Constant
Frame rate : 23.976 fps
Color space : YUV
Chroma subsampling : 4:2:0
Bit depth : 8 bits
Scan type : Progressive
Bits/(Pixel*Frame) : 0.107
Stream size : 1.32 GiB (74%)
Writing library : x264 core 142 r2479 dd79a61
Encoding settings : cabac=1 / ref=5 / deblock=1:0:0 / analyse=0x3:0x113 / me=umh / subme=8 / psy=1 / psy_rd=1.00:0.00 / mixed_ref=1 / me_range=16 / chroma_me=1 / trellis=1 / 8x8dct=1 / cqm=0 / deadzone=21,11 / fast_pskip=1 / chroma_qp_offset=-2 / threads=12 / lookahead_threads=2 / sliced_threads=0 / nr=0 / decimate=1 / interlaced=0 / bluray_compat=0 / constrained_intra=0 / bframes=3 / b_pyramid=2 / b_adapt=2 / b_bias=0 / direct=3 / weightb=1 / open_gop=0 / weightp=2 / keyint=250 / keyint_min=23 / scenecut=40 / intra_refresh=0 / rc_lookahead=50 / rc=crf / mbtree=1 / crf=18.0 / qcomp=0.60 / qpmin=0 / qpmax=69 / qpstep=4 / ip_ratio=1.40 / aq=1:1.00
Language : English
Default : Yes
Forced : No
Matrix coefficients : BT.709
Color range : Limited
Audio #1
ID : 2
Format : AC-3
Format/Info : Audio Coding 3
Mode extension : CM (complete main)
Format settings, Endianness : Big
Codec ID : A_AC3
Duration : 1h 20mn
Bit rate mode : Constant
Bit rate : 384 Kbps
Channel(s) : 2 channels
Channel positions : Front: L R
Sampling rate : 48.0 KHz
Bit depth : 16 bits
Compression mode : Lossy
Stream size : 220 MiB (12%)
Language : Russian
Default : Yes
Forced : No
Audio #2
ID : 3
Format : AC-3
Format/Info : Audio Coding 3
Mode extension : CM (complete main)
Format settings, Endianness : Big
Codec ID : A_AC3
Duration : 1h 20mn
Bit rate mode : Constant
Bit rate : 384 Kbps
Channel(s) : 6 channels
Channel positions : Front: L C R, Side: L R, LFE
Sampling rate : 48.0 KHz
Bit depth : 16 bits
Compression mode : Lossy
Stream size : 220 MiB (12%)
Language : English
Default : No
Forced : No
Text
ID : 4
Format : UTF-8
Codec ID : S_TEXT/UTF8
Codec ID/Info : UTF-8 Plain Text
Language : Russian
Default : No
Forced : No

Скриншот c названием фильма

Скриншоты









_________________
Показать сообщения:    

Текущее время: Сегодня 14:10

Часовой пояс: GMT



Вы не можете начинать темы
Вы не можете отвечать на сообщения
Вы не можете редактировать свои сообщения
Вы не можете удалять свои сообщения
Вы не можете голосовать в опросах
Вы не можете прикреплять файлы к сообщениям
Вы не можете скачивать файлы