Важное объявление!
У Нас Все раздачи мультитрекерные, при нуле пиров в релизах, можете смело вставать на закачку!
 
Автор Сообщение

HUNTER

Стаж:
4 года 4 месяца
Сообщений:
56853

Репутация: 101

[+] [-]
Вне форума [Профиль] [ЛС]

| Все релизы мультфильма || BDRip 720p, 5.99 GB |- P R E S E N T SРапунцель: Запутанная история / Tangled-
Страна: США
Жанр: мультфильм, мюзикл, приключения, семейный
Продолжительность: 01:40:57
Год выпуска: 2010
Перевод 1: Профессиональный (полное дублирование)
Перевод 2: Профессиональный (двухголосый закадровый) "Кубик в Кубе"
Перевод 3: Авторский (одноголосый закадровый) Юрий Сербин
Перевод 4: Авторский (одноголосый закадровый) Андрей Гаврилов | 1-я версия
Перевод 5: Авторский (одноголосый закадровый) Андрей Гаврилов | 2-я версия
Субтитры: есть-Режиссёр: Натан Грено, Байрон Ховард / Nathan Greno, Byron Howard
Роли озвучивали: Мэнди Мур, Закари Левай, Донна Мерфи, Рон Перлман, М. К. Гейни, Джеффри Тэмбор, Брэд Гэрред, Пол Ф. Томпкинс, Ричард Кил, Делани Роуз Стейн, Натан Грено, Байрон Ховард, Тим Мертенс, Майкл Белл...
Роли дублировали: Виктория Дайнеко, Григорий Антипенко, Андрей Бирин, Мария Кац, Арман Хачатрян, Денис Некрасов, Антон Эльдаров, Владимир Майсурадзе, Антон Батырев, Александра Ахметзянова и др.- | | -Описание: Обаятельный разбойник Флинн путешествует по жизни с легкостью, лишь потому, что он красив, болтлив и удачлив. И, казалось, фортуна всегда на его стороне, пока однажды он не выбирает высокую башню в густой чаще леса в качестве «спокойного» убежища. Флинн оказывается связанным по рукам и ногам юной красавицей по имени Рапунцель. Если вы думаете, что самое интересное в ней - это 21 метр волшебных золотистых волос, то вы заблуждаетесь! Запертая в башне и отчаянно ищущая приключений, Рапунцель решает использовать Флинна в качестве билета в большой мир. Сначала комичное похищение, затем невинный шантаж - и вот наши герои на воле. Вместе с главными героями в авантюрное путешествие отправятся бравый конь-ищейка Максимус, ручной хамелеон и шайка сумасбродных разбойников...-Доп. информация: BDRip 720p сделан с Blu-Ray диска Tangled (2010) Blu-ray CEE 1080p AVC DD5.1-HDClub (Локализованный видеоряд).
Отдельное спасибо xfiles за подготовку русских и украинских субтитров.
-Сэмпл/Sample (47.6 MB, 1 минута)-Качество: BDRip 720p
Формат: MKV
Видео: 1280x720 (1.778:1), 23,976 fps, ~4004 kbps avg, 0.181 bit/pixel
Аудио #1: Русский, AC3, 6 ch, 48 kHz, 640 kbps - Дубляж | BD CEE
Аудио #2: Русский, AC3, 6 ch, 48 kHz, 640 kbps - DVO | "Кубик в Кубе"
Аудио #3: Русский, AC3, 6 ch, 48 kHz, 640 kbps - AVO | Юрий Сербин
Аудио #4: Русский, AC3, 6 ch, 48 kHz, 640 kbps - АVO | Андрей Гаврилов | 1-я версия
Аудио #5: Русский, AC3, 6 ch, 48 kHz, 640 kbps - АVO | Андрей Гаврилов | 2-я версия
Аудио #6: Украинский, AC3, 6 ch, 48 kHz, 640 kbps - Дубляж | BD CEE
Аудио #7: English, AC3, 6 ch, 48 kHz, 640 kbps - Original
Субтитры: Русские (полные), Украинские (полные), English (Full, SDH)
Навигация по главам: есть (12 именованных глав)

MediaInfo / x264Log

x264Log

raw [info]: 1280x720p 1:1 @ 24000/1001 fps (cfr)x264 [info]: using SAR=1/1x264 [info]: using cpu capabilities: MMX2 SSE2Fast SSSE3 SSE4.2 AVX XOP FMA4 FMA3 LZCNT BMI1x264 [info]: profile High, level 4.1x264 [info]: frame I:1196 Avg QP:11.94 size:163024 PSNR Mean Y:50.68 U:52.50 V:52.53 Avg:51.20 Global:50.43x264 [info]: frame P:39323 Avg QP:13.84 size: 40424 PSNR Mean Y:48.81 U:50.59 V:50.69 Avg:49.32 Global:48.43x264 [info]: frame B:104708 Avg QP:16.60 size: 11910 PSNR Mean Y:48.33 U:50.33 V:50.49 Avg:48.90 Global:47.85x264 [info]: consecutive B-frames: 3.3% 3.7% 29.9% 25.6% 11.4% 21.6% 1.6% 0.8% 0.5% 0.2% 0.4% 0.2% 0.4% 0.5%x264 [info]: mb I I16..4: 3.3% 71.3% 25.4%x264 [info]: mb P I16..4: 0.8% 12.1% 2.5% P16..4: 24.4% 25.2% 13.5% 3.3% 0.5% skip:17.8%x264 [info]: mb B I16..4: 0.2% 1.8% 0.3% B16..8: 25.8% 18.4% 3.6% direct: 4.2% skip:45.7% L0:41.3% L1:44.4% BI:14.3%x264 [info]: 8x8 transform intra:77.4% inter:43.8%x264 [info]: coded y,uvDC,uvAC intra: 86.7% 92.8% 82.0% inter: 15.8% 16.7% 6.7%x264 [info]: i16 v,h,dc,p: 32% 10% 8% 51%x264 [info]: i8 v,h,dc,ddl,ddr,vr,hd,vl,hu: 13% 12% 12% 8% 10% 10% 10% 12% 14%x264 [info]: i4 v,h,dc,ddl,ddr,vr,hd,vl,hu: 11% 8% 9% 8% 17% 14% 13% 10% 11%x264 [info]: i8c dc,h,v,p: 46% 20% 17% 17%x264 [info]: Weighted P-Frames: Y:5.5% UV:4.3%x264 [info]: ref P L0: 54.4% 7.3% 15.5% 7.0% 5.2% 3.9% 2.8% 1.7% 1.5% 0.7% 0.0%x264 [info]: ref B L0: 72.6% 11.3% 5.9% 3.2% 3.8% 1.9% 1.0% 0.3%x264 [info]: ref B L1: 91.5% 8.5%x264 [info]: SSIM Mean Y:0.9910957 (20.504db)x264 [info]: PSNR Mean Y:48.480 U:50.420 V:50.560 Avg:49.031 Global:48.013 kb/s:4004.04encoded 145227 frames, 7.59 fps, 4004.04 kb/s
GeneralUnique ID : 236827502073792680890088834923428207729 (0xB22B515AACB34302860D32FF713E5C71)Complete name : Tangled.2010.Rus.BDRip.720p.dfcbit.mkvFormat : MatroskaFormat version : Version 2File size : 5.99 GiBDuration : 1h 40mnOverall bit rate : 8 488 KbpsEncoded date : UTC 2014-03-06 19:50:41Writing application : mkvmerge v4.0.0 ('The Stars were mine') built on Jun 6 2010 16:18:42Writing library : libebml v1.0.0 + libmatroska v1.0.0
VideoID : 1Format : AVCFormat/Info : Advanced Video CodecFormat profile : High@L4.1Format settings, CABAC : YesFormat settings, ReFrames : 9 framesCodec ID : V_MPEG4/ISO/AVCDuration : 1h 40mnBit rate : 4 004 KbpsWidth : 1 280 pixelsHeight : 720 pixelsDisplay aspect ratio : 16:9Frame rate mode : ConstantFrame rate : 23.976 fpsColor space : YUVChroma subsampling : 4:2:0Bit depth : 8 bitsScan type : ProgressiveBits/(Pixel*Frame) : 0.181Stream size : 2.82 GiB (45%)Title : NTSC, 1280x720 (1.778:1), BDRip 720p - tRuAVC & Multfilmy [DFCbit]Writing library : x264 core 142 r2389kMod 956c8d8Encoding settings : cabac=1 / ref=9 / deblock=1:-2:-1 / analyse=0x3:0x133 / me=umh / subme=11 / psy=1 / fade_compensate=0.00 / psy_rd=0.63:0.00 / mixed_ref=1 / me_range=32 / chroma_me=1 / trellis=2 / 8x8dct=1 / cqm=0 / deadzone=21,11 / fast_pskip=0 / chroma_qp_offset=-2 / threads=12 / lookahead_threads=3 / sliced_threads=0 / nr=0 / decimate=1 / interlaced=0 / bluray_compat=0 / constrained_intra=0 / fgo=0 / bframes=13 / b_pyramid=2 / b_adapt=2 / b_bias=0 / direct=1 / weightb=1 / open_gop=0 / weightp=2 / keyint=250 / keyint_min=23 / scenecut=40 / intra_refresh=0 / rc_lookahead=70 / rc=crf / mbtree=0 / crf=16.5600 / qcomp=0.81 / qpmin=0 / qpmax=69 / qpstep=4 / vbv_maxrate=50000 / vbv_bufsize=62500 / crf_max=0.0 / nal_hrd=none / filler=0 / ip_ratio=1.40 / pb_ratio=1.30 / aq=3:0.90Language : RussianDefault : YesForced : NoColor primaries : BT.709Transfer characteristics : BT.709Matrix coefficients : BT.709
Audio #1ID : 2Format : AC-3Format/Info : Audio Coding 3Mode extension : CM (complete main)Format settings, Endianness : BigCodec ID : A_AC3Duration : 1h 40mnBit rate mode : ConstantBit rate : 640 KbpsChannel(s) : 6 channelsChannel positions : Front: L C R, Side: L R, LFESampling rate : 48.0 KHzBit depth : 16 bitsCompression mode : LossyStream size : 462 MiB (8%)Title : AC3, 6 ch, 48 kHz, 640 kbps - Дубляж | BD CEELanguage : RussianDefault : YesForced : No
Audio #2ID : 3Format : AC-3Format/Info : Audio Coding 3Mode extension : CM (complete main)Format settings, Endianness : BigCodec ID : A_AC3Duration : 1h 40mnBit rate mode : ConstantBit rate : 640 KbpsChannel(s) : 6 channelsChannel positions : Front: L C R, Side: L R, LFESampling rate : 48.0 KHzBit depth : 16 bitsCompression mode : LossyStream size : 462 MiB (8%)Title : AC3, 6 ch, 48 kHz, 640 kbps - DVO | "Кубик в Кубе"Language : RussianDefault : NoForced : No
Audio #3ID : 4Format : AC-3Format/Info : Audio Coding 3Mode extension : CM (complete main)Format settings, Endianness : BigCodec ID : A_AC3Duration : 1h 40mnBit rate mode : ConstantBit rate : 640 KbpsChannel(s) : 6 channelsChannel positions : Front: L C R, Side: L R, LFESampling rate : 48.0 KHzBit depth : 16 bitsCompression mode : LossyStream size : 462 MiB (8%)Title : AC3, 6 ch, 48 kHz, 640 kbps - AVO | Юрий СербинLanguage : RussianDefault : NoForced : No
Audio #4ID : 5Format : AC-3Format/Info : Audio Coding 3Mode extension : CM (complete main)Format settings, Endianness : BigCodec ID : A_AC3Duration : 1h 40mnBit rate mode : ConstantBit rate : 640 KbpsChannel(s) : 6 channelsChannel positions : Front: L C R, Side: L R, LFESampling rate : 48.0 KHzBit depth : 16 bitsCompression mode : LossyStream size : 462 MiB (8%)Title : AC3, 6 ch, 48 kHz, 640 kbps - АVO | Андрей Гаврилов | 1-я версияLanguage : RussianDefault : NoForced : No
Audio #5ID : 6Format : AC-3Format/Info : Audio Coding 3Mode extension : CM (complete main)Format settings, Endianness : BigCodec ID : A_AC3Duration : 1h 40mnBit rate mode : ConstantBit rate : 640 KbpsChannel(s) : 6 channelsChannel positions : Front: L C R, Side: L R, LFESampling rate : 48.0 KHzBit depth : 16 bitsCompression mode : LossyStream size : 462 MiB (8%)Title : AC3, 6 ch, 48 kHz, 640 kbps - АVO | Андрей Гаврилов | 2-я версияLanguage : RussianDefault : NoForced : No
Audio #6ID : 7Format : AC-3Format/Info : Audio Coding 3Mode extension : CM (complete main)Format settings, Endianness : BigCodec ID : A_AC3Duration : 1h 40mnBit rate mode : ConstantBit rate : 640 KbpsChannel(s) : 6 channelsChannel positions : Front: L C R, Side: L R, LFESampling rate : 48.0 KHzBit depth : 16 bitsCompression mode : LossyStream size : 462 MiB (8%)Title : AC3, 6 ch, 48 kHz, 640 kbps - Дубляж | BD CEELanguage : UkrainianDefault : NoForced : No
Audio #7ID : 8Format : AC-3Format/Info : Audio Coding 3Mode extension : CM (complete main)Format settings, Endianness : BigCodec ID : A_AC3Duration : 1h 40mnBit rate mode : ConstantBit rate : 640 KbpsChannel(s) : 6 channelsChannel positions : Front: L C R, Side: L R, LFESampling rate : 48.0 KHzBit depth : 16 bitsCompression mode : LossyStream size : 462 MiB (8%)Title : AC3, 6 ch, 48 kHz, 640 kbps - OriginalLanguage : EnglishDefault : NoForced : No
Text #1ID : 9Format : UTF-8Codec ID : S_TEXT/UTF8Codec ID/Info : UTF-8 Plain TextTitle : SRT, FullLanguage : RussianDefault : NoForced : No
Text #2ID : 10Format : UTF-8Codec ID : S_TEXT/UTF8Codec ID/Info : UTF-8 Plain TextTitle : SRT, FullLanguage : UkrainianDefault : NoForced : No
Text #3ID : 11Format : UTF-8Codec ID : S_TEXT/UTF8Codec ID/Info : UTF-8 Plain TextTitle : SRT, FullLanguage : EnglishDefault : NoForced : No
Text #4ID : 12Format : UTF-8Codec ID : S_TEXT/UTF8Codec ID/Info : UTF-8 Plain TextTitle : SRT, (SDH)Language : EnglishDefault : NoForced : No
Menu00:00:00.000 : en:1. The Lost Princess00:08:21.084 : en:2. Mother Knows Best00:15:43.401 : en:3. Meet Flynn Rider00:24:41.355 : en:4. Making a Deal00:34:42.288 : en:5. The Snuggly Duckling00:42:31.007 : en:6. The Escape00:50:26.065 : en:7. In the Woods00:59:22.058 : en:8. The Best Day of Your Life01:10:35.773 : en:9. Betrayed01:19:23.550 : en:10. The Rescue01:25:22.159 : en:11. A New Dream01:31:21.017 : en:12. End Credits

Скриншоты

Локализация

--BDRip 720p


Source Blu-Ray

Релиз от групп | and | -Данный релиз не будет воспроизводиться на бытовых плеерах не поддерживающих MKV и H.264Обсуждение релизов в AVC формате || Свежие AVC рипы

_________________
Показать сообщения:    

Текущее время: Сегодня 15:32

Часовой пояс: GMT



Вы не можете начинать темы
Вы не можете отвечать на сообщения
Вы не можете редактировать свои сообщения
Вы не можете удалять свои сообщения
Вы не можете голосовать в опросах
Вы не можете прикреплять файлы к сообщениям
Вы не можете скачивать файлы
Наши партнеры: интернет магазин Ивановского трикотажа textilla.ru