Важное объявление!
У Нас Все раздачи мультитрекерные, при нуле пиров в релизах, можете смело вставать на закачку!
 
Автор Сообщение

HUNTER

Стаж:
4 года 4 месяца
Сообщений:
56798

Репутация: 101

[+] [-]
Вне форума [Профиль] [ЛС]

Рапунцель: Запутанная история / Tangled
Страна: США
Жанр: Мюзикл, комедия, семейный, мультфильм
Продолжительность: 01:40:16
Год выпуска: 2010
Перевод: Профессиональный (дублированный)
Русские субтитры: нет
Режиссёр: Натан Грено, Байрон Ховард / Nathan Greno, Byron Howard
Роли озвучивали: Мэнди Мур (Виктория Дайнеко), Закари Левай (Григорий Антипенко, Андрей Бирин), Донна Мерфи (Мария Кац), Рон Перлман (Арман Хачатрян), М. К. Гейни (Денис Некрасов), Джеффри Тэмбор (Антон Эльдаров), Брэд Гэррет (Владимир Майсурадзе), Ричард Кил (Антон Батырев), Нэйтан Грено, Байрон Ховард, Тим Мертенс, Майкл Белл, Делани Роуз Стейн, Пол Ф. Томпкинс, Джун Кристофер, Рой Конли
Описание: Обаятельный разбойник Флинн путешествует по жизни с легкостью, лишь потому, что он красив, болтлив и удачлив. И казалось, фортуна всегда на его стороне, пока однажды он не выбирает высокую башню в густой чаще леса в качестве «спокойного» убежища, где Флинн оказывается связанным по рукам и ногам волосами юной красавицы по имени Рапунцель.
Сэмпл: http://multi-up.com/952929
Качество: HDRip
Формат: AVI
Видео: Xvid 640x352 23.98fps 835kbps
Аудио: MPEG Audio Layer 3 48000Hz 2ch stereo 128kbps
Субтитры: Отсутствуют

MediaInfo

GeneralComplete name : C:\Users\SONY\Desktop\Рапунцель Запутанная история.aviFormat : AVIFormat/Info : Audio Video InterleaveFile size : 702 MiBDuration : 1h 40mnOverall bit rate : 972 KbpsWriting application : VirtualDubMod 1.5.4.1 (build 2178/release)Writing library : VirtualDubMod build 2178/release
VideoID : 0Format : MPEG-4 VisualFormat profile : Advanced Simple@L5Format settings, BVOP : 2Format settings, QPel : NoFormat settings, GMC : No warppointsFormat settings, Matrix : CustomCodec ID : XVIDCodec ID/Hint : XviDDuration : 1h 40mnBit rate : 836 KbpsWidth : 640 pixelsHeight : 352 pixelsDisplay aspect ratio : 16:9Frame rate : 23.976 fpsColor space : YUVChroma subsampling : 4:2:0Bit depth : 8 bitsScan type : ProgressiveCompression mode : LossyBits/(Pixel*Frame) : 0.155Stream size : 604 MiB (86%)Writing library : XviD 58
AudioID : 1Format : MPEG AudioFormat version : Version 1Format profile : Layer 3Codec ID : 55Codec ID/Hint : MP3Duration : 1h 40mnBit rate mode : ConstantBit rate : 128 KbpsChannel(s) : 2 channelsSampling rate : 48.0 KHzCompression mode : LossyStream size : 91.8 MiB (13%)Alignment : Aligned on interleavesInterleave, duration : 42 ms (1.01 video frame)Interleave, preload duration : 504 msWriting library : LAME3.98.4

Скриншоты


_________________
Показать сообщения:    

Текущее время: Сегодня 22:54

Часовой пояс: GMT



Вы не можете начинать темы
Вы не можете отвечать на сообщения
Вы не можете редактировать свои сообщения
Вы не можете удалять свои сообщения
Вы не можете голосовать в опросах
Вы не можете прикреплять файлы к сообщениям
Вы не можете скачивать файлы