Важное объявление!
У Нас Все раздачи мультитрекерные, при нуле пиров в релизах, можете смело вставать на закачку!
 
Автор Сообщение

HUNTER

Стаж:
4 года 4 месяца
Сообщений:
56798

Репутация: 101

[+] [-]
Вне форума [Профиль] [ЛС]

Рапунцель: Запутанная история / Tangled
Страна: США
Жанр: мюзикл, комедия, семейный, мультфильм
Продолжительность:
Год выпуска: 2010
Перевод 1: Профессиональный (дублированный) Blu-ray CEE
Перевод 2: Профессиональный (двухголосый закадровый) "Кубик в Кубе"
Перевод 3: Авторский (одноголосый закадровый) Юрий Сербин
Перевод 4: Авторский (одноголосый закадровый) Андрей Гаврилов / 1-я версия
Перевод 5: Авторский (одноголосый закадровый) Андрей Гаврилов / 2-я версия
Русские субтитры: есть
Режиссёры: Натан Грено, Байрон Ховард / Nathan Greno, Byron Howard
Роли озвучивали: Мэнди Мур, Закари Левай, Донна Мерфи, Рон Перлман, М. К. Гейни, Джеффри Тэмбор, Брэд Гэррет, Пол Ф. Томпкинс, Ричард Кил, Делани Роуз Стейн...
Описание: Обаятельный разбойник Флинн путешествует по жизни с легкостью, лишь потому, что он красив, болтлив и удачлив. И казалось, фортуна всегда на его стороне, пока однажды он не выбирает высокую башню в густой чаще леса в качестве «спокойного» убежища, где Флинн оказывается связанным по рукам и ногам волосами юной красавицы по имени Рапунцель.
Доп. информация:
- За исходный Blu-ray спасибо suzaku.
Семпл: скачать
Качество: BDRemux 1080p
Формат: MKV
Видео: 1920х1080 (16:9), 23,976 fps, AVC, 23896 kbps, High Profile 4.1
Аудио 1: Русский, Doldy AC3, 48.0 kHz, 5.1 ch, 640 kbps | Дубляж (Blu-ray CEE)
Аудио 2: Українська, Doldy AC3, 48.0 kHz, 5.1 ch, 640 kbps | Дубляж (Blu-ray CEE)
Аудио 3: Русский, DTS-HD HR, 48 kHz, 7.1/5.1 ch, 2046/1509 kbps, 24-bit | Двухголосый закадровый (Кубик в Кубе)
Аудио 4: Русский, DTS-HD HR, 48 kHz, 7.1/5.1 ch, 2046/1509 kbps, 24-bit | Одноголосый закадровый (Юрий Сербин)
Аудио 5: Русский, DTS-HD HR, 48 kHz, 7.1/5.1 ch, 2046/1509 kbps, 24-bit | Одноголосый закадровый (Андрей Гаврилов / 1-я версия)
Аудио 6: Русский, DTS-HD HR, 48 kHz, 7.1/5.1 ch, 2046/1509 kbps, 24-bit | Одноголосый закадровый (Андрей Гаврилов / 2-я версия)
Аудио 7: English, DTS-HD HR, 48 kHz, 7.1/5.1 ch, 2046/1509 kbps, 24-bit | Original
Субтитры: Русские, Українські, English

MediaInfo

GeneralUnique ID : 254890532835523335176877761198784188032 (0xBFC221877037CE73AE621E2BEE470E80)Complete name : K:\Tangled.2010.Blu-ray.Remux.1080p.AVC.DTS-HD.HR.7.1.mkvFormat : MatroskaFormat version : Version 4 / Version 2File size : 24.9 GiBDuration : 1h 40mnOverall bit rate mode : VariableOverall bit rate : 35.4 MbpsEncoded date : UTC 2013-11-30 21:47:47Writing application : mkvmerge v6.2.0 ('Promised Land') built on Apr 28 2013 12:22:01Writing library : libebml v1.3.0 + libmatroska v1.4.0
VideoID : 1Format : AVCFormat/Info : Advanced Video CodecFormat profile : High@L4.1Format settings, CABAC : YesFormat settings, ReFrames : 4 framesCodec ID : V_MPEG4/ISO/AVCDuration : 1h 40mnBit rate mode : VariableBit rate : 23.1 MbpsMaximum bit rate : 33.0 MbpsWidth : 1 920 pixelsHeight : 1 080 pixelsDisplay aspect ratio : 16:9Frame rate mode : ConstantFrame rate : 23.976 fpsColor space : YUVChroma subsampling : 4:2:0Bit depth : 8 bitsScan type : ProgressiveBits/(Pixel*Frame) : 0.466Stream size : 16.3 GiB (65%)Default : YesForced : NoColor primaries : BT.709Transfer characteristics : BT.709Matrix coefficients : BT.709
Audio #1ID : 2Format : AC-3Format/Info : Audio Coding 3Mode extension : CM (complete main)Format settings, Endianness : BigCodec ID : A_AC3Duration : 1h 40mnBit rate mode : ConstantBit rate : 640 KbpsChannel(s) : 6 channelsChannel positions : Front: L C R, Side: L R, LFESampling rate : 48.0 KHzBit depth : 16 bitsCompression mode : LossyStream size : 462 MiB (2%)Title : AC3 6 ch 640 kbps Dub BD CEELanguage : RussianDefault : YesForced : No
Audio #2ID : 3Format : AC-3Format/Info : Audio Coding 3Mode extension : CM (complete main)Format settings, Endianness : BigCodec ID : A_AC3Duration : 1h 40mnBit rate mode : ConstantBit rate : 640 KbpsChannel(s) : 6 channelsChannel positions : Front: L C R, Side: L R, LFESampling rate : 48.0 KHzBit depth : 16 bitsCompression mode : LossyStream size : 462 MiB (2%)Title : AC3 6 ch 640 kbps Dub BD CEELanguage : UkrainianDefault : NoForced : No
Audio #3ID : 4Format : DTSFormat/Info : Digital Theater SystemsFormat profile : HRA / CoreMode : 16Format settings, Endianness : BigCodec ID : A_DTSDuration : 1h 40mnBit rate mode : ConstantBit rate : 2 046 Kbps / 1 509 KbpsChannel(s) : 8 channels / 6 channelsChannel positions : Front: L C R, Side: L R, Back: L R, LFE / Front: L C R, Side: L R, LFESampling rate : 48.0 KHzBit depth : 24 bitsCompression mode : LossyStream size : 1.44 GiB (6%)Title : DTS-HD HR 7.1 ch 2046 kbps DVO Кубик в КубеLanguage : RussianDefault : NoForced : No
Audio #4ID : 5Format : DTSFormat/Info : Digital Theater SystemsFormat profile : HRA / CoreMode : 16Format settings, Endianness : BigCodec ID : A_DTSDuration : 1h 40mnBit rate mode : ConstantBit rate : 2 046 Kbps / 1 509 KbpsChannel(s) : 8 channels / 6 channelsChannel positions : Front: L C R, Side: L R, Back: L R, LFE / Front: L C R, Side: L R, LFESampling rate : 48.0 KHzBit depth : 24 bitsCompression mode : LossyStream size : 1.44 GiB (6%)Title : DTS-HD HR 7.1 ch 2046 kbps Юрий СербинLanguage : RussianDefault : NoForced : No
Audio #5ID : 6Format : DTSFormat/Info : Digital Theater SystemsFormat profile : HRA / CoreMode : 16Format settings, Endianness : BigCodec ID : A_DTSDuration : 1h 40mnBit rate mode : ConstantBit rate : 2 046 Kbps / 1 509 KbpsChannel(s) : 8 channels / 6 channelsChannel positions : Front: L C R, Side: L R, Back: L R, LFE / Front: L C R, Side: L R, LFESampling rate : 48.0 KHzBit depth : 24 bitsCompression mode : LossyStream size : 1.44 GiB (6%)Title : DTS-HD HR 7.1 ch 2046 kbps Андрей Гаврилов 1-я версияLanguage : RussianDefault : NoForced : No
Audio #6ID : 7Format : DTSFormat/Info : Digital Theater SystemsFormat profile : HRA / CoreMode : 16Format settings, Endianness : BigCodec ID : A_DTSDuration : 1h 40mnBit rate mode : ConstantBit rate : 2 046 Kbps / 1 509 KbpsChannel(s) : 8 channels / 6 channelsChannel positions : Front: L C R, Side: L R, Back: L R, LFE / Front: L C R, Side: L R, LFESampling rate : 48.0 KHzBit depth : 24 bitsCompression mode : LossyStream size : 1.44 GiB (6%)Title : DTS-HD HR 7.1 ch 2046 kbps Андрей Гаврилов 2-я версияLanguage : RussianDefault : NoForced : No
Audio #7ID : 8Format : DTSFormat/Info : Digital Theater SystemsFormat profile : HRA / CoreMode : 16Format settings, Endianness : BigCodec ID : A_DTSDuration : 1h 40mnBit rate mode : ConstantBit rate : 2 046 Kbps / 1 509 KbpsChannel(s) : 8 channels / 6 channelsChannel positions : Front: L C R, Side: L R, Back: L R, LFE / Front: L C R, Side: L R, LFESampling rate : 48.0 KHzBit depth : 24 bitsCompression mode : LossyStream size : 1.44 GiB (6%)Title : DTS-HD HR 7.1 ch 2046 kbpsLanguage : EnglishDefault : NoForced : No
Text #1ID : 9Format : UTF-8Codec ID : S_TEXT/UTF8Codec ID/Info : UTF-8 Plain TextLanguage : RussianDefault : NoForced : No
Text #2ID : 10Format : UTF-8Codec ID : S_TEXT/UTF8Codec ID/Info : UTF-8 Plain TextLanguage : UkrainianDefault : NoForced : No
Text #3ID : 11Format : UTF-8Codec ID : S_TEXT/UTF8Codec ID/Info : UTF-8 Plain TextLanguage : EnglishDefault : NoForced : No
Menu00:00:00.000 : en:00:00:00.00000:08:21.084 : en:00:08:21.08400:15:43.401 : en:00:15:43.40100:24:41.355 : en:00:24:41.35500:34:42.288 : en:00:34:42.28800:42:31.007 : en:00:42:31.00700:50:26.065 : en:00:50:26.06500:59:22.058 : en:00:59:22.05801:10:35.773 : en:01:10:35.77301:19:23.550 : en:01:19:23.55001:25:22.159 : en:01:25:22.15901:31:21.017 : en:01:31:21.017

Скриншоты


_________________
Показать сообщения:    

Текущее время: Сегодня 05:47

Часовой пояс: GMT



Вы не можете начинать темы
Вы не можете отвечать на сообщения
Вы не можете редактировать свои сообщения
Вы не можете удалять свои сообщения
Вы не можете голосовать в опросах
Вы не можете прикреплять файлы к сообщениям
Вы не можете скачивать файлы