Важное объявление!
У Нас Все раздачи мультитрекерные, при нуле пиров в релизах, можете смело вставать на закачку!
 
Автор Сообщение

HUNTER

Стаж:
4 года 4 месяца
Сообщений:
56734

Репутация: 101

[+] [-]
Вне форума [Профиль] [ЛС]

Ранчо Скинуолкер / Skinwalker Ranch-
Страна: США
Студия: Deep Studios
Жанр: Ужасы, Фантастика, Триллер
Год выпуска: 2013
Продолжительность: 01:20:47-Перевод: Одноголосый закадровый [VANO]
Cубтитры: Английские
Оригинальная аудиодорожка: Английская-Режиссер: Девин МакДжинн / Devin McGinn-В ролях: Девин МакДжинн, Джон Грайз, Кайл Дэвис, Мэттью Ришелье, Стив Берг, Эрин Кехилл-Описание: Фильм в стиле "найденные пленки", якобы основанный на реальных событиях, связанных с НЛО и случившихся на ранчо Скинуокер.
Отважная группа уфологов-исследователей ищет следы инопланетян и снимает на видео доказательства сверхъестественных проявлений. Они будут вести расследование мистической пропажи десятилетнего сына местного фермера...-||Сэмпл||-Тип релиза: BDRip 1080p (исх. 1080p.BluRay.AVC.DTS-HD.MA.5.1-CHDBits)
Контейнер: MKV-Видео: MPEG4 Video (H264) 1920x1080 23.976fps 10500Kbps
Аудио: DTS 48000Hz 6ch 755Kbps [RUS]
Аудио 2: DTS 48000Hz 6ch 1510Kbps [ENG]
Формат субтитров: softsub (SRT)
-

MediaInfo

Код:
General
Unique ID                      : 194917300206014482121709899355830777361 (0x92A3B4DE23D9725CBAD074A1B8167611)
Complete name                  : E:\Видео\Skinwalker.Ranch.2013.1080p.BluRay.DTS.Rus.Eng.x264.mkv
Format                         : Matroska
Format version                 : Version 4 / Version 2
File size                      : 7.36 GiB
Duration                       : 1h 20mn
Overall bit rate               : 13.0 Mbps
Encoded date                   : UTC 2014-02-27 03:53:20
Writing application            : mkvmerge v6.7.0 ('Back to the Ground') 32bit built on Jan  8 2014 15:03:17
Writing library                : libebml v1.3.0 + libmatroska v1.4.1
Video
ID                             : 1
Format                         : AVC
Format/Info                    : Advanced Video Codec
Format profile                 : High@L4.1
Format settings, CABAC         : Yes
Format settings, ReFrames      : 4 frames
Codec ID                       : V_MPEG4/ISO/AVC
Duration                       : 1h 20mn
Bit rate                       : 10.5 Mbps
Width                          : 1 920 pixels
Height                         : 1 080 pixels
Display aspect ratio           : 16:9
Frame rate mode                : Constant
Frame rate                     : 23.976 fps
Color space                    : YUV
Chroma subsampling             : 4:2:0
Bit depth                      : 8 bits
Scan type                      : Progressive
Bits/(Pixel*Frame)             : 0.212
Stream size                    : 5.94 GiB (81%)
Language                       : English
Default                        : Yes
Forced                         : No
Audio #1
ID                             : 2
Format                         : DTS
Format/Info                    : Digital Theater Systems
Mode                           : 16
Format settings, Endianness    : Big
Codec ID                       : A_DTS
Duration                       : 1h 20mn
Bit rate mode                  : Constant
Bit rate                       : 755 Kbps
Channel(s)                     : 6 channels
Channel positions              : Front: L C R, Side: L R, LFE
Sampling rate                  : 48.0 KHz
Bit depth                      : 24 bits
Compression mode               : Lossy
Stream size                    : 436 MiB (6%)
Title                          : Одноголосый закадровый [VANO]
Default                        : Yes
Forced                         : No
Audio #2
ID                             : 3
Format                         : DTS
Format/Info                    : Digital Theater Systems
Mode                           : 16
Format settings, Endianness    : Big
Codec ID                       : A_DTS
Duration                       : 1h 20mn
Bit rate mode                  : Constant
Bit rate                       : 1 509 Kbps
Channel(s)                     : 6 channels
Channel positions              : Front: L C R, Side: L R, LFE
Sampling rate                  : 48.0 KHz
Bit depth                      : 24 bits
Compression mode               : Lossy
Stream size                    : 872 MiB (12%)
Title                          : Original
Language                       : English
Default                        : No
Forced                         : No
Text
ID                             : 4
Format                         : UTF-8
Codec ID                       : S_TEXT/UTF8
Codec ID/Info                  : UTF-8 Plain Text
Title                          : English Subtitle
Default                        : No
Forced                         : No
Menu
00:00:00.000                   : en:00:00:00.000
00:10:49.315                   : en:00:10:49.315
00:28:36.757                   : en:00:28:36.757
00:45:19.216                   : en:00:45:19.216
01:00:23.537                   : en:01:00:23.537
01:10:45.491                   : en:01:10:45.491

Скриншоты


_________________
Показать сообщения:    

Текущее время: Сегодня 16:53

Часовой пояс: GMT



Вы не можете начинать темы
Вы не можете отвечать на сообщения
Вы не можете редактировать свои сообщения
Вы не можете удалять свои сообщения
Вы не можете голосовать в опросах
Вы не можете прикреплять файлы к сообщениям
Вы не можете скачивать файлы