Важное объявление!
У Нас Все раздачи мультитрекерные, при нуле пиров в релизах, можете смело вставать на закачку!
 
Автор Сообщение

HUNTER

Стаж:
4 года 4 месяца
Сообщений:
56755

Репутация: 101

[+] [-]
Вне форума [Профиль] [ЛС]

Ранчо любви / Love Ranch
Страна: США, Германия
Жанр: Драма, Мелодрама, Комедия
Год выпуска: 2010
Продолжительность: 01:57:59
Перевод: Авторский (одноголосый закадровый) Ю.Сербин
Перевод: Профессиональный (двухголосый закадровый) ELROM
Cубтитры: нет
Оригинальная аудиодорожка: английский-Режиссер: Тейлор Хэкфорд / Taylor Hackford-В ролях: Хелен Миррен, Джо Пеши, Серхио Перис-Менчета, Джина Гершон, Тэрин Мэннинг, Скаут Тэйлор-Комптон, Бай Лин, Элиз Нил, Брайан Крэнстон, Рик Гомез-Описание: Семейная пара в начале 70-х открывает вблизи города Рино, штат Невада, первый легальный публичный дом. Он авантюрист, она спокойна и расчетлива, их бизнес процветает и пользуется в округе спросом, не смотря на нападки церкви и феминисток. И, вроде, всё хорошо у супружеской четы Бонтемпо, но это только на первый взгляд. Грейс узнаёт о том, что смертельно больна, Чарли, который изменяет своей супруге направо и налево, тяжело переносит роман своей жены с купленным им недавно боксёром...-Качество видео: BDRemux
Формат видео: MKV
Видео: MPEG-4 AVC Video 20.8 Mbps 1080p / 23.976 fps / 16:9 / High Profile 4.1
Аудио 1: DTS-HD Master Audio Russian 2253 kbps 5.1 / 48 kHz / 2253 kbps / 16-bit (DTS Core: 5.1 / 48 kHz / 1509 kbps / 16-bit) | Ю.Сербин
Аудио 2: 48 kHz, AC3 Dolby Digital, 2/0 (L,R) ch, ~192 kbps avg | ELROM
Аудио 3: DTS-HD Master Audio English 2238 kbps 5.1 / 48 kHz / 2238 kbps / 16-bit (DTS Core: 5.1 / 48 kHz / 1509 kbps / 16-bit)-Раздача от группы: -

MI

Код:
Format                                   : Matroska
Format version                           : Version 2
File size                                : 20.3 GiB
Duration                                 : 1h 57mn
Overall bit rate mode                    : Variable
Overall bit rate                         : 24.6 Mbps
Encoded date                             : UTC 2013-11-01 16:01:50
Writing application                      : mkvmerge v5.0.1 ('Es ist Sommer') built on Oct  9 2011 11:55:43
Writing library                          : libebml v1.2.2 + libmatroska v1.3.0
Video
ID                                       : 1
Format                                   : AVC
Format/Info                              : Advanced Video Codec
Format profile                           : High@L4.1
Format settings, CABAC                   : Yes
Format settings, ReFrames                : 4 frames
Codec ID                                 : V_MPEG4/ISO/AVC
Duration                                 : 1h 57mn
Bit rate mode                            : Variable
Bit rate                                 : 20.8 Mbps
Maximum bit rate                         : 35.0 Mbps
Width                                    : 1 920 pixels
Height                                   : 1 080 pixels
Display aspect ratio                     : 16:9
Frame rate                               : 23.976 fps
Color space                              : YUV
Chroma subsampling                       : 4:2:0
Bit depth                                : 8 bits
Scan type                                : Progressive
Bits/(Pixel*Frame)                       : 0.419
Stream size                              : 17.2 GiB (85%)
Default                                  : Yes
Forced                                   : No
Color primaries                          : BT.709-5, BT.1361, IEC 61966-2-4, SMPTE RP177
Transfer characteristics                 : BT.709-5, BT.1361
Matrix coefficients                      : BT.709-5, BT.1361, IEC 61966-2-4 709, SMPTE RP177
Audio #1
ID                                       : 2
Format                                   : DTS
Format/Info                              : Digital Theater Systems
Format profile                           : MA / Core
Codec ID                                 : A_DTS
Duration                                 : 1h 57mn
Bit rate mode                            : Variable
Bit rate                                 : 1 561 Kbps / 1 510 Kbps
Channel(s)                               : 6 channels
Channel positions                        : Front: L C R, Side: L R, LFE
Sampling rate                            : 48.0 KHz
Bit depth                                : 16 bits
Compression mode                         : Lossless / Lossy
Language                                 : Russian
Default                                  : Yes
Forced                                   : No
Audio #2
ID                                       : 3
Format                                   : AC-3
Format/Info                              : Audio Coding 3
Mode extension                           : CM (complete main)
Codec ID                                 : A_AC3
Duration                                 : 1h 57mn
Bit rate mode                            : Constant
Bit rate                                 : 192 Kbps
Channel(s)                               : 2 channels
Channel positions                        : Front: L R
Sampling rate                            : 48.0 KHz
Bit depth                                : 16 bits
Compression mode                         : Lossy
Stream size                              : 162 MiB (1%)
Language                                 : Russian
Default                                  : No
Forced                                   : No
Audio #3
ID                                       : 4
Format                                   : DTS
Format/Info                              : Digital Theater Systems
Format profile                           : MA / Core
Codec ID                                 : A_DTS
Duration                                 : 1h 57mn
Bit rate mode                            : Variable
Bit rate                                 : 1 561 Kbps / 1 510 Kbps
Channel(s)                               : 6 channels
Channel positions                        : Front: L C R, Side: L R, LFE
Sampling rate                            : 48.0 KHz
Bit depth                                : 16 bits
Compression mode                         : Lossless / Lossy
Language                                 : English
Default                                  : No
Forced                                   : No

Скриншоты


_________________
Показать сообщения:    

Текущее время: Сегодня 17:21

Часовой пояс: GMT



Вы не можете начинать темы
Вы не можете отвечать на сообщения
Вы не можете редактировать свои сообщения
Вы не можете удалять свои сообщения
Вы не можете голосовать в опросах
Вы не можете прикреплять файлы к сообщениям
Вы не можете скачивать файлы