Важное объявление!
У Нас Все раздачи мультитрекерные, при нуле пиров в релизах, можете смело вставать на закачку!
 
Автор Сообщение

HUNTER

Стаж:
4 года 4 месяца
Сообщений:
56842

Репутация: 101

[+] [-]
Вне форума [Профиль] [ЛС]

Раненый змей / Cut Snake
Страна: Австралия
Жанр: триллер
Год выпуска: 2014
Продолжительность: 01:33:55
Перевод: Любительский (многоголосый закадровый) Paradox & OMSKBIRD records
Cубтитры: английские
Оригинальная аудиодорожка: английский (SDH)
Режиссер: Тони Эйрс / Tony Ayres
В ролях: Салливан Степлтон, Алекс Расселл, Джессика Де Гау, Меган Холлоуэй, Керри Уолкер, Роберт Морган, Пол Модер, Джим Расселл, Ричард Анастасиос
Описание: Пара бывших зэков разрабатывают дикий план, чтобы сжечь дотла ночной клуб в Брисбене.
[img]https://rating.kinopoisk.ru/723905.gif[/img]
Сэмпл: http://sendfile.su/1269484
Тип релиза: BDRemux 1080p
Контейнер: MKV
Видео: 1920x1080 (16:9), 23.976 fps, AVC, 29902 kbps, 0.589 bits/pixel
Аудио: Russian, 48.0 KHz, AC3, 2 ch, 384 Kbps
Аудио 2: English, 48.0 KHz, AC3, 6 ch, 448 Kbps
Формат субтитров: softsub (SRT)

MediaInfo

General
Unique ID : 195794045420773711298060004841947032894 (0x934C8FBE852EEBF5B1EB019926D66D3E)
Complete name : D:\Cut Snake 2014 1080p BDRemux.mkv
Format : Matroska
Format version : Version 4 / Version 2
File size : 20.2 GiB
Duration : 1h 33mn
Overall bit rate mode : Variable
Overall bit rate : 30.7 Mbps
Encoded date : UTC 2016-09-28 04:08:23
Writing application : mkvmerge v7.0.0 ('Where We Going') 64bit built on Jun 9 2014 15:16:27
Writing library : libebml v1.3.0 + libmatroska v1.4.1
_STATISTICS_WRITING_APP : mkvmerge v7.0.0 ('Where We Going') 64bit built on Jun 9 2014 15:16:27
_STATISTICS_WRITING_DATE_UTC : 2016-09-28 04:08:23
_STATISTICS_TAGS : BPS DURATION NUMBER_OF_FRAMES NUMBER_OF_BYTES
DURATION : 01:29:23.525000000
NUMBER_OF_FRAMES : 1099
NUMBER_OF_BYTES : 23193
Video
ID : 1
Format : AVC
Format/Info : Advanced Video Codec
Format profile : High@L4.1
Format settings, CABAC : Yes
Format settings, ReFrames : 3 frames
Codec ID : V_MPEG4/ISO/AVC
Duration : 1h 33mn
Bit rate mode : Variable
Bit rate : 29.3 Mbps
Maximum bit rate : 34.5 Mbps
Width : 1 920 pixels
Height : 1 080 pixels
Display aspect ratio : 16:9
Frame rate mode : Constant
Frame rate : 23.976 fps
Standard : NTSC
Color space : YUV
Chroma subsampling : 4:2:0
Bit depth : 8 bits
Scan type : Progressive
Bits/(Pixel*Frame) : 0.589
Stream size : 19.2 GiB (95%)
Default : Yes
Forced : No
Color range : Limited
Color primaries : BT.709
Transfer characteristics : BT.709
Matrix coefficients : BT.709
Audio #1
ID : 2
Format : AC-3
Format/Info : Audio Coding 3
Mode extension : CM (complete main)
Format settings, Endianness : Big
Codec ID : A_AC3
Duration : 1h 33mn
Bit rate mode : Constant
Bit rate : 384 Kbps
Channel(s) : 2 channels
Channel positions : Front: L R
Sampling rate : 48.0 KHz
Compression mode : Lossy
Stream size : 258 MiB (1%)
Language : Russian
Default : Yes
Forced : No
Audio #2
ID : 3
Format : AC-3
Format/Info : Audio Coding 3
Mode extension : CM (complete main)
Format settings, Endianness : Big
Codec ID : A_AC3
Duration : 1h 33mn
Bit rate mode : Constant
Bit rate : 448 Kbps
Channel(s) : 6 channels
Channel positions : Front: L C R, Side: L R, LFE
Sampling rate : 48.0 KHz
Compression mode : Lossy
Stream size : 301 MiB (1%)
Language : English
Default : No
Forced : No
Text
ID : 4
Format : UTF-8
Codec ID : S_TEXT/UTF8
Codec ID/Info : UTF-8 Plain Text
Title : SDH
Language : English
Default : No
Forced : No
Menu
00:00:00.000 : en:
00:09:25.565 : en:
00:18:51.130 : en:
00:28:16.695 : en:
00:37:42.260 : en:
00:47:07.825 : en:
00:56:33.390 : en:
01:05:58.955 : en:
01:15:24.520 : en:
01:24:50.085 : en:

Скриншоты


_________________
Показать сообщения:    

Текущее время: Сегодня 20:03

Часовой пояс: GMT



Вы не можете начинать темы
Вы не можете отвечать на сообщения
Вы не можете редактировать свои сообщения
Вы не можете удалять свои сообщения
Вы не можете голосовать в опросах
Вы не можете прикреплять файлы к сообщениям
Вы не можете скачивать файлы
Наши партнеры: интернет магазин Ивановского трикотажа textilla.ru