Важное объявление!
У Нас Все раздачи мультитрекерные, при нуле пиров в релизах, можете смело вставать на закачку!
 
Автор Сообщение

HUNTER

Стаж:
4 года 4 месяца
Сообщений:
56822

Репутация: 101

[+] [-]
Вне форума [Профиль] [ЛС]

Рандеву с жизнью / Date A Live II
Страна: Япония
Год выпуска: 2014 г.
Тип: TV
Жанр: Приключения
Продолжительность: 12 эп. по 25 мин-Перевод на русский: A_P FanSub team
Перевод: Nikollo
Редакция: Veles
Режиссер: Мотонага Кэйтаро
Студия:
Описание: Парень по имени Сидо Ицука встречает призрак девушки, которая была отвергнута потусторонним миром. Девушка, которую Сидо назвал "Тока", практически уничтожила человечество 30 лет назад, и теперь она вернулась. Единственный способ остановить ее - начать с ней встречаться.
Равка: Leopard-Raws
Качество: HDTVRip
Хардсаб: Отсутствует
Формат видео: mp4
Видео: AVC, 8 bits, 1280x720, 1617 kbps, 23.976 fps, (16:9)
Аудио:
1. JP - AAC, 192 kbps, 48.0 Hz, 2 ch

Список эпизодов

01.

Скриншоты

MediaInfo

Общее
Полное имя : D:\[Leopard-Raws]\[Leopard-Raws] Date A Live II\[Leopard-Raws] Date A Live II - 01 RAW (MX 1280x720 x264 AAC).mp4
Формат : MPEG-4
Профиль формата : Base Media
Идентификатор кодека : isom
Размер файла : 311 Мбайт
Продолжительность : 24 м.
Режим общего битрейта : Переменный
Общий поток : 1813 Кбит/сек
Дата кодирования : UTC 2014-04-12 06:39:08
Дата пометки : UTC 2014-04-12 06:39:08
Видео
Идентификатор : 1
Формат : AVC
Формат/Информация : Advanced Video Codec
Профиль формата : High@L4.1
Параметр CABAC формата : Да
Параметр ReFrames формата : 4 кадра
Идентификатор кодека : avc1
Идентификатор кодека/Информация : Advanced Video Coding
Продолжительность : 23 м.
Битрейт : 1617 Кбит/сек
Максимальный битрейт : 11,7 Мбит/сек
Ширина : 1280 пикселей
Высота : 720 пикселей
Соотношение сторон : 16:9
Режим частоты кадров : Постоянный
Частота кадров : 23,976 кадра/сек
Цветовое пространство : YUV
Субдискретизация насыщенности : 4:2:0
Битовая глубина : 8 бит
Тип развёртки : Прогрессивная
Бит/(Пиксели*Кадры) : 0.073
Размер потока : 278 Мбайт (89%)
Заголовок : 264:fps=23.976@GPAC0.5.1-DEV-rev4283
Библиотека кодирования : x264 core 129 r2245+729M 1a52e03
Настройки программы : cabac=1 / ref=4 / deblock=1:1:-1 / analyse=0x3:0x113 / me=umh / subme=9 / psy=1 / fade_compensate=0.00 / psy_rd=1.00:0.00 / mixed_ref=1 / me_range=24 / chroma_me=1 / trellis=2 / 8x8dct=1 / cqm=0 / deadzone=21,11 / fast_pskip=1 / chroma_qp_offset=-2 / threads=8 / lookahead_threads=1 / sliced_threads=0 / nr=0 / decimate=1 / interlaced=0 / bluray_compat=0 / constrained_intra=0 / fgo=0 / bframes=9 / b_pyramid=2 / b_adapt=2 / b_bias=0 / direct=1 / weightb=1 / open_gop=0 / weightp=2 / keyint=240 / keyint_min=24 / scenecut=40 / intra_refresh=0 / rc=crf / mbtree=0 / crf=18.5 / qcomp=0.72 / qpmin=0 / qpmax=69 / qpstep=4 / ip_ratio=1.40 / pb_ratio=1.30 / aq=1:0.85
Дата кодирования : UTC 2014-04-12 06:39:08
Дата пометки : UTC 2014-04-12 06:39:09
Основные цвета : BT.709
Характеристики трансфера : BT.709
Коэффициенты матрицы : BT.709
Аудио
Идентификатор : 2
Формат : AAC
Формат/Информация : Advanced Audio Codec
Профиль формата : LC
Идентификатор кодека : 40
Продолжительность : 24 м.
Вид битрейта : Переменный
Битрейт : 192 Кбит/сек
Максимальный битрейт : 223 Кбит/сек
Каналы : 2 канала
Расположение каналов : Front: L R
Частота : 48,0 КГц
Метод сжатия : С потерями
Размер потока : 33,0 Мбайт (11%)
Язык : Japanese
Дата кодирования : UTC 2014-04-11 17:38:22
Дата пометки : UTC 2014-04-12 06:39:09

_________________
Показать сообщения:    

Текущее время: Сегодня 07:03

Часовой пояс: GMT



Вы не можете начинать темы
Вы не можете отвечать на сообщения
Вы не можете редактировать свои сообщения
Вы не можете удалять свои сообщения
Вы не можете голосовать в опросах
Вы не можете прикреплять файлы к сообщениям
Вы не можете скачивать файлы