Важное объявление!
У Нас Все раздачи мультитрекерные, при нуле пиров в релизах, можете смело вставать на закачку!
 
Автор Сообщение

HUNTER

Стаж:
4 года 4 месяца
Сообщений:
56783

Репутация: 101

[+] [-]
Вне форума [Профиль] [ЛС]

| Все релизы мультфильма || BDRemux 1080p, 27.8 GB |- P R E S E N T SРaльф / Wreсk-Іt Rаlph-
Страна: США
Жанр: мультфильм, фэнтези, комедия, приключения, семейный
Продолжительность: 01:41:13
Год выпуска: 2012
Перевод 1: Профессиональный (полное дублирование)
Перевод 2: Авторский (одноголосый закадровый) Юрий Сербин
Субтитры: есть-Режиссёр: Рич Мур / Rich Moore
Роли озвучивали: Джон Си Райли, Джек МакБрайер, Сара Силверман, Джейн Линч, Алан Тьюдик, Минди Калинг, Джо Ло Трульо, Эд О'Нил, Деннис Хейсбёрт, Эди МакКлёрг, Рэймонд С. Перси, Джесс Харнелл, Рэйчел Харрис, Рич Мур...
Роли дублировали: Станислав Дужников, Александр Гудков, Наталия Медведева, Регина Щукина, Валентин Морозов, Юлия Баранчук, Станислав Концевич, Александр Аравушкин, Алексей Макрецкий, Лидия Мельникова, Олег Куликович, Александр Лушин, Дмитрий Стрелков, Александр Ноткин, Олег Белов- | | <- Рекомендуется присутствие родителей-Описание: Ральф - второстепенный персонаж восьмибитной компьютерной игры, и ему надоело находиться в тени главного героя, мастера на все руки Феликса, который всегда появляется, чтобы «исправить» ситуацию! После тридцати лет добросовестной работы в роли злодея, в течение которых все похвалы выпадали на долю Феликса, Ральф больше не хочет быть плохим. Он решает отправиться в путешествие по аркадным играм разных жанров, чтобы доказать всем, что и он тоже может быть героем. На своем пути Ральф встречает героев разных игр - хладнокровную сержанта Калхун из игры Hero’s Duty, оберегающую планету от нашествия инопланетных захватчиков, и сладкую на вид, но острую на язычок Сластену фон Дю, чье существование в гоночном симуляторе Sugar Rush внезапно оказывается под угрозой. Наконец-то Ральфу выпадает шанс показать, что он умеет не только разрушать!...-Доп. информация: BDRemux 1080p (1.778:1) сделан с 2-х Blu-Ray дисков Ральф / Wreck-It Ralph (2012) Blu-ray CEE 1080p AVC DD5.1 (Локализованный видеоряд) и Wreck-It Ralph 2012 1080p Blu-ray AVC DTS-HD MA 7.1-PCH.-Сэмпл/Sample (338.23 MB, 1 минута)-Качество: BDRemux 1080p
Формат: MKV
Видео: 1920x1080 (1.778:1), 23,976 fps, ~25179 kbps avg, 0.518 bit/pixel
Аудио #1: Русский, DTS-HD MA / 5.1 / 48 kHz / 3774 kbps / 24-bit (DTS Core: 5.1 / 48 kHz / 1509 kbps / 24-bit) - Полное дублирование
Аудио #2: Русский, DTS-HD MA / 7.1 / 48 kHz / 4797 kbps / 24-bit (DTS Core: 5.1 / 48 kHz / 1509 kbps / 24-bit) - AVO | Юрий Сербин
Аудио #3: Украинский, AC3, 6 ch, 48 kHz, 640 kbps - Полное дублирование
Аудио #4: English, DTS-HD MA / 7.1 / 48 kHz / 4750 kbps / 24-bit (DTS Core: 5.1 / 48 kHz / 1509 kbps / 24-bit) - Original
Аудио #5: English, AC3, Surround, 2 ch, 48 kHz, 320 kbps - Descriptive
Субтитры: Русские (полные, надписи), Украинские (полные, надписи), English (Full, SDH)
Навигация по главам: есть (16 именованных глав)

MediaInfo

GeneralUnique ID : 242826810996504649447054731842142247026 (0xB6AEBE1EF442FE12AA164402CC069872)Complete name : Wreck-It.Ralph.2012.Rus.Video.BDRemux.1080p.dfcbit.mkvFormat : MatroskaFormat version : Version 2File size : 27.8 GiBDuration : 1h 41mnOverall bit rate mode : VariableOverall bit rate : 39.3 MbpsEncoded date : UTC 2014-09-06 16:15:49Writing application : mkvmerge v4.0.0 ('The Stars were mine') built on Jun 6 2010 16:18:42Writing library : libebml v1.0.0 + libmatroska v1.0.0
VideoID : 1Format : AVCFormat/Info : Advanced Video CodecFormat profile : High@L4.1Format settings, CABAC : YesFormat settings, ReFrames : 4 framesFormat settings, GOP : M=1, N=12Codec ID : V_MPEG4/ISO/AVCDuration : 1h 41mnBit rate mode : VariableBit rate : 24.6 MbpsMaximum bit rate : 33.5 MbpsWidth : 1 920 pixelsHeight : 1 080 pixelsDisplay aspect ratio : 16:9Frame rate mode : ConstantFrame rate : 23.976 fpsColor space : YUVChroma subsampling : 4:2:0Bit depth : 8 bitsScan type : ProgressiveTitle : NTSC, 1920x1080 (1.778:1), Untached ~25179 kbps avg, BDRemux 1080p - tRuAVC & Multfilmy [DFCbit]Language : RussianDefault : YesForced : No
Audio #1ID : 2Format : DTSFormat/Info : Digital Theater SystemsFormat profile : MA / CoreMode : 16Format settings, Endianness : BigCodec ID : A_DTSDuration : 1h 41mnBit rate mode : VariableBit rate : 3 774 Kbps / 1 509 KbpsChannel(s) : 6 channelsChannel positions : Front: L C R, Side: L R, LFESampling rate : 48.0 KHzBit depth : 24 bitsCompression mode : Lossless / LossyTitle : DTS-HD MA / 5.1 / 48 kHz / 3774 kbps / 24-bit - Полное дублированиеLanguage : RussianDefault : YesForced : No
Audio #2ID : 3Format : DTSFormat/Info : Digital Theater SystemsFormat profile : MA / CoreMode : 16Format settings, Endianness : BigCodec ID : A_DTSDuration : 1h 41mnBit rate mode : VariableBit rate : 4 797 Kbps / 1 509 KbpsChannel(s) : 8 channels / 6 channelsChannel positions : Front: L C R, Side: L R, Back: L R, LFE / Front: L C R, Side: L R, LFESampling rate : 48.0 KHzBit depth : 24 bitsCompression mode : Lossless / LossyTitle : DTS-HD MA / 7.1 / 48 kHz / 4797 kbps / 24-bit - AVO | Юрий СербинLanguage : RussianDefault : NoForced : No
Audio #3ID : 4Format : AC-3Format/Info : Audio Coding 3Mode extension : CM (complete main)Format settings, Endianness : BigCodec ID : A_AC3Duration : 1h 41mnBit rate mode : ConstantBit rate : 640 KbpsChannel(s) : 6 channelsChannel positions : Front: L C R, Side: L R, LFESampling rate : 48.0 KHzBit depth : 16 bitsCompression mode : LossyStream size : 463 MiB (2%)Title : AC3, 6 ch, 48 kHz, 640 kbps - Полное дублированиеLanguage : UkrainianDefault : NoForced : No
Audio #4ID : 5Format : DTSFormat/Info : Digital Theater SystemsFormat profile : MA / CoreMode : 16Format settings, Endianness : BigCodec ID : A_DTSDuration : 1h 41mnBit rate mode : VariableBit rate : 4 750 Kbps / 1 509 KbpsChannel(s) : 8 channels / 6 channelsChannel positions : Front: L C R, Side: L R, Back: L R, LFE / Front: L C R, Side: L R, LFESampling rate : 48.0 KHzBit depth : 24 bitsCompression mode : Lossless / LossyTitle : DTS-HD MA / 7.1 / 48 kHz / 4750 kbps / 24-bit - OriginalLanguage : EnglishDefault : NoForced : No
Audio #5ID : 6Format : AC-3Format/Info : Audio Coding 3Format profile : Dolby DigitalMode extension : CM (complete main)Format settings, Endianness : BigCodec ID : A_AC3Duration : 1h 41mnBit rate mode : ConstantBit rate : 320 KbpsChannel(s) : 2 channelsChannel positions : Front: L RSampling rate : 48.0 KHzBit depth : 16 bitsCompression mode : LossyStream size : 232 MiB (1%)Title : AC3, Surround, 2 ch, 48 kHz, 320 kbps - DescriptiveLanguage : EnglishDefault : NoForced : No
Text #1ID : 7Format : UTF-8Codec ID : S_TEXT/UTF8Codec ID/Info : UTF-8 Plain TextTitle : ПолныеLanguage : RussianDefault : NoForced : No
Text #2ID : 8Format : UTF-8Codec ID : S_TEXT/UTF8Codec ID/Info : UTF-8 Plain TextTitle : НадписиLanguage : RussianDefault : NoForced : No
Text #3ID : 9Format : UTF-8Codec ID : S_TEXT/UTF8Codec ID/Info : UTF-8 Plain TextTitle : ПолныеLanguage : UkrainianDefault : NoForced : No
Text #4ID : 10Format : UTF-8Codec ID : S_TEXT/UTF8Codec ID/Info : UTF-8 Plain TextTitle : НадписиLanguage : UkrainianDefault : NoForced : No
Text #5ID : 11Format : UTF-8Codec ID : S_TEXT/UTF8Codec ID/Info : UTF-8 Plain TextTitle : FullLanguage : EnglishDefault : NoForced : No
Text #6ID : 12Format : UTF-8Codec ID : S_TEXT/UTF8Codec ID/Info : UTF-8 Plain TextTitle : (SDH)Language : EnglishDefault : NoForced : No
Menu00:00:00.000 : ru:1. Начальные титры00:07:12.140 : ru:2. 30 лет00:16:34.910 : ru:3. Долг Героя00:27:07.501 : ru:4. Сладкий форсаж00:37:25.952 : ru:5. Глюк00:44:46.684 : ru:6. Турбо00:48:45.130 : ru:7. Создание машины00:51:36.009 : ru:8. Уроки вождения00:58:56.032 : ru:9. Тайна Короля Карамели01:09:07.893 : ru:10. Поломка01:13:39.623 : ru:11. Каждый день моей жизни01:15:56.802 : ru:12. Гонка01:18:52.978 : ru:13. Нашествие кибержуков01:21:53.742 : ru:14. Не могу выйти из игры01:27:25.365 : ru:15. По одной игре за раз01:33:10.543 : ru:16. Финальные титры

Скриншоты

Скриншот с названием мультфильма / Локализация

--BDRemux 1080p

Релиз от групп | and | -Данный релиз не будет воспроизводиться на бытовых плеерах не поддерживающих MKV и H.264Обсуждение релизов в AVC формате || Свежие AVC рипы-Приятного просмотра!Просьба к скачавшим: не уходите с раздачи!

_________________
Показать сообщения:    

Текущее время: Сегодня 23:31

Часовой пояс: GMT



Вы не можете начинать темы
Вы не можете отвечать на сообщения
Вы не можете редактировать свои сообщения
Вы не можете удалять свои сообщения
Вы не можете голосовать в опросах
Вы не можете прикреплять файлы к сообщениям
Вы не можете скачивать файлы