Важное объявление!
У Нас Все раздачи мультитрекерные, при нуле пиров в релизах, можете смело вставать на закачку!
 
Автор Сообщение

HUNTER

Стаж:
4 года 4 месяца
Сообщений:
56822

Репутация: 101

[+] [-]
Вне форума [Профиль] [ЛС]

| Все релизы мультфильма || BDRip 720p, 4.75 GB |- P R E S E N T SРaльф / Wreсk-Іt Rаlph-
Страна: США
Жанр: мультфильм, фэнтези, комедия, приключения, семейный
Продолжительность: 01:41:13
Год выпуска: 2012
Перевод 1: Профессиональный (полное дублирование)
Перевод 2: Авторский (одноголосый закадровый) Юрий Сербин
Субтитры: есть-Режиссёр: Рич Мур / Rich Moore
Роли озвучивали: Джон Си Райли, Джек МакБрайер, Сара Силверман, Джейн Линч, Алан Тьюдик, Минди Калинг, Джо Ло Трульо, Эд О'Нил, Деннис Хейсбёрт, Эди МакКлёрг, Рэймонд С. Перси, Джесс Харнелл, Рэйчел Харрис, Рич Мур...
Роли дублировали: Станислав Дужников, Александр Гудков, Наталия Медведева, Регина Щукина, Валентин Морозов, Юлия Баранчук, Станислав Концевич, Александр Аравушкин, Алексей Макрецкий, Лидия Мельникова, Олег Куликович, Александр Лушин, Дмитрий Стрелков, Александр Ноткин, Олег Белов- | | <- Рекомендуется присутствие родителей-Описание: Ральф - второстепенный персонаж восьмибитной компьютерной игры, и ему надоело находиться в тени главного героя, мастера на все руки Феликса, который всегда появляется, чтобы «исправить» ситуацию! После тридцати лет добросовестной работы в роли злодея, в течение которых все похвалы выпадали на долю Феликса, Ральф больше не хочет быть плохим. Он решает отправиться в путешествие по аркадным играм разных жанров, чтобы доказать всем, что и он тоже может быть героем. На своем пути Ральф встречает героев разных игр - хладнокровную сержанта Калхун из игры Hero’s Duty, оберегающую планету от нашествия инопланетных захватчиков, и сладкую на вид, но острую на язычок Сластену фон Дю, чье существование в гоночном симуляторе Sugar Rush внезапно оказывается под угрозой. Наконец-то Ральфу выпадает шанс показать, что он умеет не только разрушать!...-Доп. информация: BDRip 720p (2.388:1) сделан с Blu-Ray диска Ральф / Wreck-It Ralph (2012) Blu-ray CEE 1080p AVC DD5.1 (Локализованный видеоряд).-Сэмпл/Sample (50.96 MB, 1 минута)-Качество: BDRip 720p
Формат: MKV
Видео: 1280x536 (2.388:1), 23,976 fps, ~3958 kbps avg, 0.246 bit/pixel
Аудио #1: Русский, AC3, 6 ch, 48 kHz, 640 kbps - Полное дублирование
Аудио #2: Русский, AC3, 6 ch, 48 kHz, 640 kbps - AVO | Юрий Сербин
Аудио #3: Украинский, AC3, 6 ch, 48 kHz, 640 kbps - Полное дублирование
Аудио #4: English, AC3, 6 ch, 48 kHz, 640 kbps - Original
Аудио #5: English, AC3, Surround, 2 ch, 48 kHz, 192 kbps - Descriptive
Субтитры: Русские (полные, надписи), Украинские (полные, надписи), English (Full, SDH)
Навигация по главам: есть (16 именованных глав)

MediaInfo / x264Log

x264Log
raw [info]: 1280x536p 1:1 @ 24000/1001 fps (cfr)x264 [info]: using SAR=1/1x264 [info]: using cpu capabilities: MMX2 SSE2Fast SSSE3 SSE4.2 AVX XOP FMA4 FMA3 LZCNT BMI1x264 [info]: profile High, level 4.1x264 [info]: frame I:1293 Avg QP:13.15 size:128908 PSNR Mean Y:49.04 U:51.06 V:50.63 Avg:49.54 Global:49.07x264 [info]: frame P:38533 Avg QP:14.87 size: 37982 PSNR Mean Y:47.54 U:49.56 V:48.93 Avg:48.01 Global:47.45x264 [info]: frame B:105792 Avg QP:18.43 size: 12996 PSNR Mean Y:46.97 U:49.13 V:48.34 Avg:47.43 Global:46.72x264 [info]: consecutive B-frames: 4.5% 5.4% 10.2% 39.0% 16.4% 17.9% 2.4% 1.0% 1.5% 0.7% 0.6% 0.1% 0.1% 0.3%x264 [info]: mb I I16..4: 3.8% 64.0% 32.1%x264 [info]: mb P I16..4: 1.1% 12.8% 3.9% P16..4: 23.1% 26.0% 13.1% 3.3% 0.4% skip:16.3%x264 [info]: mb B I16..4: 0.2% 2.5% 0.6% B16..8: 23.9% 17.5% 4.0% direct: 4.4% skip:46.9% L0:40.0% L1:44.1% BI:15.9%x264 [info]: 8x8 transform intra:71.9% inter:48.3%x264 [info]: coded y,uvDC,uvAC intra: 88.9% 93.7% 85.4% inter: 17.8% 21.5% 11.9%x264 [info]: i16 v,h,dc,p: 9% 18% 3% 70%x264 [info]: i8 v,h,dc,ddl,ddr,vr,hd,vl,hu: 11% 14% 9% 8% 11% 9% 12% 10% 15%x264 [info]: i4 v,h,dc,ddl,ddr,vr,hd,vl,hu: 12% 13% 4% 9% 15% 12% 13% 9% 13%x264 [info]: i8c dc,h,v,p: 42% 25% 15% 19%x264 [info]: Weighted P-Frames: Y:3.2% UV:2.6%x264 [info]: ref P L0: 53.4% 7.6% 16.0% 6.4% 4.5% 3.7% 2.9% 1.8% 1.6% 1.7% 0.4% 0.0%x264 [info]: ref B L0: 77.2% 10.3% 5.0% 2.4% 1.8% 1.3% 1.1% 0.6% 0.3%x264 [info]: ref B L1: 93.4% 6.6%x264 [info]: SSIM Mean Y:0.9903215 (20.142db)x264 [info]: PSNR Mean Y:47.138 U:49.265 V:48.515 Avg:47.602 Global:46.918 kb/s:3958.33encoded 145618 frames, 8.80 fps, 3958.33 kb/s
GeneralUnique ID : 178976716818367982934916445344703348328 (0x86A5A96D7C336605A2ADAC5A4AB27E68)Complete name : Wreck-It.Ralph.2012.Rus.Video.BDRip.720p.dfcbit.mkvFormat : MatroskaFormat version : Version 2File size : 4.75 GiBDuration : 1h 41mnOverall bit rate : 6 714 KbpsEncoded date : UTC 2014-09-06 05:17:48Writing application : mkvmerge v4.0.0 ('The Stars were mine') built on Jun 6 2010 16:18:42Writing library : libebml v1.0.0 + libmatroska v1.0.0
VideoID : 1Format : AVCFormat/Info : Advanced Video CodecFormat profile : High@L4.1Format settings, CABAC : YesFormat settings, ReFrames : 10 framesCodec ID : V_MPEG4/ISO/AVCDuration : 1h 41mnBit rate : 3 958 KbpsWidth : 1 280 pixelsHeight : 536 pixelsDisplay aspect ratio : 2.40:1Frame rate mode : ConstantFrame rate : 23.976 fpsColor space : YUVChroma subsampling : 4:2:0Bit depth : 8 bitsScan type : ProgressiveBits/(Pixel*Frame) : 0.246Stream size : 2.80 GiB (57%)Title : NTSC, 1280x536 (2.388:1), BDRip 720p - tRuAVC & Multfilmy [DFCbit]Writing library : x264 core 142 r2453kMod ea0ca51Encoding settings : cabac=1 / ref=10 / deblock=1:-2:-1 / analyse=0x3:0x133 / me=umh / subme=11 / psy=1 / fade_compensate=0.00 / psy_rd=0.63:0.00 / mixed_ref=1 / me_range=32 / chroma_me=1 / trellis=2 / 8x8dct=1 / cqm=0 / deadzone=21,11 / fast_pskip=0 / chroma_qp_offset=-2 / threads=12 / lookahead_threads=3 / sliced_threads=0 / nr=0 / decimate=1 / interlaced=0 / bluray_compat=0 / constrained_intra=0 / fgo=0 / bframes=13 / b_pyramid=2 / b_adapt=2 / b_bias=0 / direct=1 / weightb=1 / open_gop=0 / weightp=2 / keyint=250 / keyint_min=23 / scenecut=40 / intra_refresh=0 / rc_lookahead=70 / rc=crf / mbtree=0 / crf=16.4259 / qcomp=0.81 / qpmin=0 / qpmax=69 / qpstep=4 / vbv_maxrate=50000 / vbv_bufsize=62500 / crf_max=0.0 / nal_hrd=none / filler=0 / ip_ratio=1.40 / pb_ratio=1.30 / aq=3:0.90Language : RussianDefault : YesForced : NoColor primaries : BT.709Transfer characteristics : BT.709Matrix coefficients : BT.709
Audio #1ID : 2Format : AC-3Format/Info : Audio Coding 3Mode extension : CM (complete main)Format settings, Endianness : BigCodec ID : A_AC3Duration : 1h 41mnBit rate mode : ConstantBit rate : 640 KbpsChannel(s) : 6 channelsChannel positions : Front: L C R, Side: L R, LFESampling rate : 48.0 KHzBit depth : 16 bitsCompression mode : LossyStream size : 463 MiB (10%)Title : AC3, 6 ch, 48 kHz, 640 kbps - Полное дублированиеLanguage : RussianDefault : YesForced : No
Audio #2ID : 3Format : AC-3Format/Info : Audio Coding 3Mode extension : CM (complete main)Format settings, Endianness : BigCodec ID : A_AC3Duration : 1h 41mnBit rate mode : ConstantBit rate : 640 KbpsChannel(s) : 6 channelsChannel positions : Front: L C R, Side: L R, LFESampling rate : 48.0 KHzBit depth : 16 bitsCompression mode : LossyStream size : 463 MiB (10%)Title : AC3, 6 ch, 48 kHz, 640 kbps - AVO | Юрий СербинLanguage : RussianDefault : NoForced : No
Audio #3ID : 4Format : AC-3Format/Info : Audio Coding 3Mode extension : CM (complete main)Format settings, Endianness : BigCodec ID : A_AC3Duration : 1h 41mnBit rate mode : ConstantBit rate : 640 KbpsChannel(s) : 6 channelsChannel positions : Front: L C R, Side: L R, LFESampling rate : 48.0 KHzBit depth : 16 bitsCompression mode : LossyStream size : 463 MiB (10%)Title : AC3, 6 ch, 48 kHz, 640 kbps - Полное дублированиеLanguage : UkrainianDefault : NoForced : No
Audio #4ID : 5Format : AC-3Format/Info : Audio Coding 3Mode extension : CM (complete main)Format settings, Endianness : BigCodec ID : A_AC3Duration : 1h 41mnBit rate mode : ConstantBit rate : 640 KbpsChannel(s) : 6 channelsChannel positions : Front: L C R, Side: L R, LFESampling rate : 48.0 KHzBit depth : 16 bitsCompression mode : LossyStream size : 463 MiB (10%)Title : AC3, 6 ch, 48 kHz, 640 kbps - OriginalLanguage : EnglishDefault : NoForced : No
Audio #5ID : 6Format : AC-3Format/Info : Audio Coding 3Format profile : Dolby DigitalMode extension : CM (complete main)Format settings, Endianness : BigCodec ID : A_AC3Duration : 1h 41mnBit rate mode : ConstantBit rate : 192 KbpsChannel(s) : 2 channelsChannel positions : Front: L RSampling rate : 48.0 KHzBit depth : 16 bitsCompression mode : LossyStream size : 139 MiB (3%)Title : AC3, Surround, 2 ch, 48 kHz, 192 kbps - DescriptiveLanguage : EnglishDefault : NoForced : No
Text #1ID : 7Format : UTF-8Codec ID : S_TEXT/UTF8Codec ID/Info : UTF-8 Plain TextTitle : ПолныеLanguage : RussianDefault : NoForced : No
Text #2ID : 8Format : UTF-8Codec ID : S_TEXT/UTF8Codec ID/Info : UTF-8 Plain TextTitle : НадписиLanguage : RussianDefault : NoForced : No
Text #3ID : 9Format : UTF-8Codec ID : S_TEXT/UTF8Codec ID/Info : UTF-8 Plain TextTitle : ПолныеLanguage : UkrainianDefault : NoForced : No
Text #4ID : 10Format : UTF-8Codec ID : S_TEXT/UTF8Codec ID/Info : UTF-8 Plain TextTitle : НадписиLanguage : UkrainianDefault : NoForced : No
Text #5ID : 11Format : UTF-8Codec ID : S_TEXT/UTF8Codec ID/Info : UTF-8 Plain TextTitle : FullLanguage : EnglishDefault : NoForced : No
Text #6ID : 12Format : UTF-8Codec ID : S_TEXT/UTF8Codec ID/Info : UTF-8 Plain TextTitle : (SDH)Language : EnglishDefault : NoForced : No
Menu00:00:00.000 : ru:1. Начальные титры00:07:12.140 : ru:2. 30 лет00:16:34.910 : ru:3. Долг Героя00:27:07.501 : ru:4. Сладкий форсаж00:37:25.952 : ru:5. Глюк00:44:46.684 : ru:6. Турбо00:48:45.130 : ru:7. Создание машины00:51:36.009 : ru:8. Уроки вождения00:58:56.032 : ru:9. Тайна Короля Карамели01:09:07.893 : ru:10. Поломка01:13:39.623 : ru:11. Каждый день моей жизни01:15:56.802 : ru:12. Гонка01:18:52.978 : ru:13. Нашествие кибержуков01:21:53.742 : ru:14. Не могу выйти из игры01:27:25.365 : ru:15. По одной игре за раз01:33:10.543 : ru:16. Финальные титры

Скриншоты

Скриншот с названием мультфильма / Локализация

--BDRip 720p


Source Blu-Ray

Релиз от групп | and | -Данный релиз не будет воспроизводиться на бытовых плеерах не поддерживающих MKV и H.264Обсуждение релизов в AVC формате || Свежие AVC рипы-Приятного просмотра!Просьба к скачавшим: не уходите с раздачи!

_________________
Показать сообщения:    

Текущее время: Сегодня 21:24

Часовой пояс: GMT



Вы не можете начинать темы
Вы не можете отвечать на сообщения
Вы не можете редактировать свои сообщения
Вы не можете удалять свои сообщения
Вы не можете голосовать в опросах
Вы не можете прикреплять файлы к сообщениям
Вы не можете скачивать файлы