Важное объявление!
У Нас Все раздачи мультитрекерные, при нуле пиров в релизах, можете смело вставать на закачку!
 
Автор Сообщение

Game

Стаж:
3 года 11 месяцев
Сообщений:
2074

Репутация: 107

[+] [-]
Вне форума [Профиль] [ЛС]

Рай: Надежда / Paradies: Hoffnung-
Страна: Австрия, Франция, Германия
Жанр: драма
Год выпуска: 2013
Продолжительность: 01:31:20-Перевод: Профессиональный (многоголосый, закадровый) /лицензия/
Субтитры: нет
Режиссер: Ульрих Зайдль / Ulrich Seidl
В ролях: Мелани Ленц, Верена Лебауэр, Йозеф Лоренц, Михаэль Томас, Вивиана Барч, Райнер Луттенбергер, Ханнес А. Пендль, Йоханна Шмид-Описание: Её мать уезжает в Кению в поисках мальчиков, готовых предоставить ей любовные услуги. Её тетя - католик, с головой поглощённая проповедованием Евангелия. А 13-летняя Мелани проводит свои каникулы в диетическом лагере в Австрийских горах. В перерывах между физическими упражнениями и консультациями по вопросам питания, ночными боями подушками и тайными соревнованиями «кто больше выпьет» на местной дискотеке она влюбляется в доктора и по совместительству директора лагеря, который старше её на сорок лет...-

-

Доп.Информация

Сценарий: Ульрих Зайдль / Ulrich Seidl, Вероника Франц / Veronika Franz
Продюсер: Ульрих Зайдль / Ulrich Seidl, Михаэль Андре / Michael Andrй, Филипп Бобер / Philippe Bober, Кристин Рупперт / Christine Ruppert, Константин Сайтц / Konstantin Seitz
Оператор: Эдвард Лакмен / Edward Lachman, Вольфганг Талер / Wolfgang Thaler
Сборы в России: $27 841
Мировая премьера: 8 февраля 2013
Релиз на DVD: 30 сентября 2013,
«Новый Диск»
-Качество: BDRip (Исходник BD Remux)
Формат: AVI
Видео кодек: XviD
Аудио кодек: AC3
Видео: XviD, 720x384 (1.875), 2082 kbps, 23,976 fps, 0,314 bpp
Аудио: AC3 / 2.0 / 48 kHz / 192 kbps / 16 bit-

Media Info

Общее
Полное имя : G:\Paradies.Hoffnung.2012.BDRip.am64.avi
Формат : AVI
Формат/Информация : Audio Video Interleave
Размер файла : 1,46 Гбайт
Продолжительность : 1 ч. 31 м.
Общий поток : 2284 Кбит/сек
Программа кодирования : VirtualDubModRus 1.5.10.2 (build 2542/release)
Библиотека кодирования : VirtualDubMod build 2542/release
Видео
Идентификатор : 0
Формат : MPEG-4 Visual
Профиль формата : Advanced Simple@L5
Параметр BVOP формата : 1
Параметр QPel формата : Нет
Параметр GMC формата : Без точки перехода
Параметр матрицы формата : Выборочная
Идентификатор кодека : XVID
Идентификатор кодека/Подсказка : XviD
Продолжительность : 1 ч. 31 м.
Битрейт : 2082 Кбит/сек
Ширина : 720 пикселей
Высота : 384 пикселя
Соотношение сторон : 1,85:1
Частота кадров : 23,976 кадра/сек
Цветовое пространство : YUV
Субдискретизация насыщенности : 4:2:0
Битовая глубина : 8 бит
Тип развёртки : Прогрессивная
Метод сжатия : С потерями
Бит/(Пиксели*Кадры) : 0.314
Размер потока : 1,33 Гбайт (91%)
Библиотека кодирования : XviD 65
Аудио
Идентификатор : 1
Формат : AC-3
Формат/Информация : Audio Coding 3
Расширение режима : CM (complete main)
Параметр Endianness формата : Big
Идентификатор кодека : 2000
Продолжительность : 1 ч. 31 м.
Вид битрейта : Постоянный
Битрейт : 192 Кбит/сек
Каналы : 2 канала
Расположение каналов : Front: L R
Частота : 48,0 КГц
Битовая глубина : 16 бит
Метод сжатия : С потерями
Размер потока : 125 Мбайт (8%)
Выравнивание : Разделение по промежуткам
Продолжительность промежутка : 42 мс. (1,00 видеокадр)
Время предзагрузки промежутка : 500 мс.

Скриншоты

-
Показать сообщения:    

Текущее время: Сегодня 15:54

Часовой пояс: GMT



Вы не можете начинать темы
Вы не можете отвечать на сообщения
Вы не можете редактировать свои сообщения
Вы не можете удалять свои сообщения
Вы не можете голосовать в опросах
Вы не можете прикреплять файлы к сообщениям
Вы не можете скачивать файлы