Важное объявление!
У Нас Все раздачи мультитрекерные, при нуле пиров в релизах, можете смело вставать на закачку!
 
Автор Сообщение

Game

Стаж:
3 года 11 месяцев
Сообщений:
2074

Репутация: 107

[+] [-]
Вне форума [Профиль] [ЛС]

Рай: Вера / Paradies: Glaube-
Страна: Австрия, Франция, Германия
Жанр: драма
Год выпуска: 2012
Продолжительность: 01:53:31-Перевод: Профессиональный (многоголосый, закадровый) /лицензия/
Субтитры: нет
Режиссер: Ульрих Зайдль / Ulrich Seidl
В ролях: Мария Хофштаттер, Набил Сале, Наталья Баранова, Рене Рупник, Даниэль Хёсл, Дитер Мазур, Труде Мазур, Мартина Спитцер-Описание: Анна-Мария, по профессии рентгенотехник, уверена, что рай - там, где Иисус. Она посвящает весь свой отпуск миссионерской работе, чтобы Австрию можно было вернуть на путь добродетели. Ежедневно она совершает паломничество по Вене,: ходит от дома к дому с полуметровой статуей девы Марии. В один прекрасный день после многих лет отсутствия домой возвращается ее муж, мусульманин из Египта, прикованный к инвалидному креслу.-

-Сценарий: Ульрих Зайдль / Ulrich Seidl, Вероника Франц / Veronika Franz
Продюсер: Ульрих Зайдль / Ulrich Seidl, Михаэль Андре / Michael Andr�, Филипп Бобер / Philippe Bober, Кристин Рупперт / Christine Ruppert, Константин Сайтц / Konstantin Seitz
Оператор: Эдвард Лакмен / Edward Lachman, Вольфганг Талер / Wolfgang Thaler
Сборы в США: $6 508
Сборы в России: $23 363
Мировая премьера: 30 августа 2012
Релиз на DVD: 3 июня 2013,
«Новый Диск»-Качество: BDRip (Исходник BD Remux)
Контейнер: AVI
Видео: XviD, 720x384 (1.875), 1640 kbps, 23,976 fps, 0,248 bpp
Аудио: AC3 / 2.0 / 48 kHz / 192 kbps / 16 bit-

Media Info

General
Complete name : G:\Paradies.Glaube.2012.BDRip.am64.avi
Format : AVI
Format/Info : Audio Video Interleave
File size : 1.46 GiB
Duration : 1h 53mn
Overall bit rate : 1 842 Kbps
Movie name : Paradies.Glaube.2012.BDRip.am64
Director : ам64
Writing application : VirtualDubModRus 1.5.10.2 (build 2542/release)
Video
ID : 0
Format : MPEG-4 Visual
Format profile : Advanced Simple@L5
Format settings, BVOP : 1
Format settings, QPel : No
Format settings, GMC : No warppoints
Format settings, Matrix : Custom
Codec ID : XVID
Codec ID/Hint : XviD
Duration : 1h 53mn
Bit rate : 1 641 Kbps
Width : 720 pixels
Height : 384 pixels
Display aspect ratio : 1.875
Frame rate : 23.976 fps
Color space : YUV
Chroma subsampling : 4:2:0
Bit depth : 8 bits
Scan type : Progressive
Compression mode : Lossy
Bits/(Pixel*Frame) : 0.248
Stream size : 1.30 GiB (89%)
Writing library : XviD 65
Audio
ID : 1
Format : AC-3
Format/Info : Audio Coding 3
Mode extension : CM (complete main)
Codec ID : 2000
Duration : 1h 53mn
Bit rate mode : Constant
Bit rate : 192 Kbps
Channel(s) : 2 channels
Channel positions : Front: L R
Sampling rate : 48.0 KHz
Bit depth : 16 bits
Compression mode : Lossy
Stream size : 156 MiB (10%)
Alignment : Split accross interleaves
Interleave, duration : 42 ms (1.00 video frame)
Interleave, preload duration : 500 ms

Скриншот с названием фильма

Скриншоты

-Источник:
Показать сообщения:    

Текущее время: Сегодня 01:36

Часовой пояс: GMT



Вы не можете начинать темы
Вы не можете отвечать на сообщения
Вы не можете редактировать свои сообщения
Вы не можете удалять свои сообщения
Вы не можете голосовать в опросах
Вы не можете прикреплять файлы к сообщениям
Вы не можете скачивать файлы