Важное объявление!
У Нас Все раздачи мультитрекерные, при нуле пиров в релизах, можете смело вставать на закачку!
 
Автор Сообщение

HUNTER

Стаж:
4 года 4 месяца
Сообщений:
56749

Репутация: 101

[+] [-]
Вне форума [Профиль] [ЛС]

Разумное сомнение / Reasonable Doubt
Страна: Германия, Канада
Жанр: Криминал, Триллер
Год выпуска: 2014
Продолжительность: 01:31:18
Перевод: Профессиональный (многоголосый закадровый)
Cубтитры: русские, английские
Оригинальная аудиодорожка: английский
Режиссер: Питер Хауит / Peter Howitt
В ролях: Доминик Купер, Сэмюэл Л. Джексон, Глория Рубен, Райан Роббинс, Эрин Карплак, Дилан Тейлор, Карл Тордарсон, Дин Хардер, Карсон Нэттрасс, Джон Б. Лоу
Описание: Помощник окружного прокурора позволил себе сесть за руль в состоянии алкогольного опьянения, в результате чего совершает наезд на человека. Выбежав из машины, виновник ДТП обнаружил, что пострадавший еще при жизни. Не желая иметь проблемы с полицией, а тем более нести ответственность за содеянное, он совершает анонимный звонок в службу спасения «911» и скрывается с места преступления. Помощник прокурора надеется, что врачи успеют оказать пострадавшему помощь. Если кто-то узнает о его тайне —
мгновенно разгорится большой скандал. Как оказалось позже, пострадавшего не удалось спасти, а на месте ДТП был еще один человек, на которого полиция решила повесить это преступление...
Сэмпл: http://multi-up.com/968402
Качество видео: BDRip 1080p
Формат видео: MKV
Видео: AVC MPEG-4 (x264), 1920x800, 2.40:1, 23.976 fps, 8 630 kbps
Аудио: AC3,48 kHz, 2 ch, ~224 kbps, [Профессиональный (многоголосый, закадровый)]
Аудио 2: AC3, 48 kHz, 6 ch, ~640 kbps, [Оригинал]
Формат субтитров: softsub (SRT)

MediaInfo

General
Unique ID : 175889757986566483538567255579553729367 (0x8453229B452BDB03B1D385234A308B57)
Complete name : D:\Фильмы\Разумное сомнение\reasonable doubt.mkv
Format : Matroska
Format version : Version 2
File size : 6.04 GiB
Duration : 1h 31mn
Overall bit rate : 9 476 Kbps
Movie name : Reasonable Doubt
Encoded date : UTC 2014-04-20 10:15:04
Writing application : mkvmerge v3.3.0 ('Language') built on Mar 24 2010 14:59:24
Writing library : libebml v0.8.0 + libmatroska v0.9.0
Video
ID : 1
Format : AVC
Format/Info : Advanced Video Codec
Format profile : High@L4.1
Format settings, CABAC : Yes
Format settings, ReFrames : 5 frames
Codec ID : V_MPEG4/ISO/AVC
Duration : 1h 31mn
Bit rate : 8 630 Kbps
Width : 1 920 pixels
Height : 800 pixels
Display aspect ratio : 2.40:1
Frame rate mode : Constant
Frame rate : 23.976 fps
Color space : YUV
Chroma subsampling : 4:2:0
Bit depth : 8 bits
Scan type : Progressive
Bits/(Pixel*Frame) : 0.234
Stream size : 5.37 GiB (89%)
Title : Reasonable Doubt (2014)
Writing library : x264 core 138 r2358 9e941d1
Encoding settings : cabac=1 / ref=5 / deblock=1:-3:-3 / analyse=0x3:0x113 / me=umh / subme=11 / psy=1 / psy_rd=1.00:0.10 / mixed_ref=1 / me_range=32 / chroma_me=1 / trellis=2 / 8x8dct=1 / cqm=0 / deadzone=21,11 / fast_pskip=0 / chroma_qp_offset=-3 / threads=2 / lookahead_threads=1 / sliced_threads=0 / nr=0 / decimate=0 / interlaced=0 / bluray_compat=0 / constrained_intra=0 / bframes=7 / b_pyramid=2 / b_adapt=2 / b_bias=0 / direct=3 / weightb=1 / open_gop=0 / weightp=2 / keyint=240 / keyint_min=23 / scenecut=40 / intra_refresh=0 / rc_lookahead=40 / rc=2pass / mbtree=0 / bitrate=8630 / ratetol=1.0 / qcomp=0.60 / qpmin=0 / qpmax=69 / qpstep=4 / cplxblur=20.0 / qblur=0.5 / vbv_maxrate=50000 / vbv_bufsize=62500 / nal_hrd=none / ip_ratio=1.40 / pb_ratio=1.30 / aq=1:0.80
Default : Yes
Forced : No
Audio #1
ID : 2
Format : AC-3
Format/Info : Audio Coding 3
Mode extension : CM (complete main)
Format settings, Endianness : Big
Codec ID : A_AC3
Duration : 1h 31mn
Bit rate mode : Constant
Bit rate : 224 Kbps
Channel(s) : 2 channels
Channel positions : Front: L R
Sampling rate : 48.0 KHz
Bit depth : 16 bits
Compression mode : Lossy
Stream size : 146 MiB (2%)
Title : Multi VoiceOver (Pozitiv)
Language : Russian
Default : Yes
Forced : No
Audio #2
ID : 3
Format : AC-3
Format/Info : Audio Coding 3
Mode extension : CM (complete main)
Format settings, Endianness : Big
Codec ID : A_AC3
Duration : 1h 31mn
Bit rate mode : Constant
Bit rate : 640 Kbps
Channel(s) : 6 channels
Channel positions : Front: L C R, Side: L R, LFE
Sampling rate : 48.0 KHz
Bit depth : 16 bits
Compression mode : Lossy
Stream size : 418 MiB (7%)
Title : Original
Language : English
Default : No
Forced : No
Text #1
ID : 4
Format : UTF-8
Codec ID : S_TEXT/UTF8
Codec ID/Info : UTF-8 Plain Text
Language : Russian
Default : No
Forced : No
Text #2
ID : 5
Format : UTF-8
Codec ID : S_TEXT/UTF8
Codec ID/Info : UTF-8 Plain Text
Title : SDH
Language : English
Default : No
Forced : No
Menu
00:00:00.000 : en:00:00:00.000
00:05:23.990 : en:00:05:23.990
00:12:43.888 : en:00:12:43.888
00:15:54.829 : en:00:15:54.829
00:24:05.569 : en:00:24:05.569
00:27:10.420 : en:00:27:10.420
00:29:47.703 : en:00:29:47.703
00:35:27.959 : en:00:35:27.959
00:40:31.346 : en:00:40:31.346
00:44:28.791 : en:00:44:28.791
00:50:40.454 : en:00:50:40.454
00:54:05.325 : en:00:54:05.325
00:59:09.963 : en:00:59:09.963
01:06:54.886 : en:01:06:54.886
01:11:29.285 : en:01:11:29.285
01:17:59.383 : en:01:17:59.383

Скриншот c названием фильма

Скриншоты


_________________
Показать сообщения:    

Текущее время: Сегодня 05:36

Часовой пояс: GMT



Вы не можете начинать темы
Вы не можете отвечать на сообщения
Вы не можете редактировать свои сообщения
Вы не можете удалять свои сообщения
Вы не можете голосовать в опросах
Вы не можете прикреплять файлы к сообщениям
Вы не можете скачивать файлы