Важное объявление!
У Нас Все раздачи мультитрекерные, при нуле пиров в релизах, можете смело вставать на закачку!
 
Автор Сообщение

HUNTER

Стаж:
4 года 4 месяца
Сообщений:
56798

Репутация: 101

[+] [-]
Вне форума [Профиль] [ЛС]

Разлом Сан-АндреасSan Andreas«A rescue pilot survived an earthquake, this is what happens next»-
Год выпуска: 2015
Страна: США, Австралия, Канада
Жанр: боевик, триллер, драма
Продолжительность: 01:54:24-Перевод: Профессиональный (полное дублирование) [Чистый звук]
Режиссер: Брэд Пейтон / Brad Peyton
В ролях: Дуэйн Джонсон (Ray), Карла Гуджино (Emma), Александра Даддарио (Blake), Йоан Гриффит (Daniel Riddick), Арчи Панджаби (Serena), Пол Джаматти (Lawrence), Хьюго Джонстон-Барт (Ben), Арт Паркинсон (Ollie), Уилл Юн Ли (Dr. Kim Park), Кайли Миноуг (Susan Riddick), Колтон Хэйнс (Joby), Тодд Уильямс (Marcus)-Описание: Рэй - пилот спасательного вертолета, который всю свою жизнь помогал другим людям. За все время работы он насмотрелся на множество жутких вещей и не раз оказывался в очень сложных ситуациях. Несмотря на все преграды он спешил на помощь, даже не предполагая, что самое страшное ждет его впереди.
На Калифорнию обрушивается мощное землетрясение, в результате которого гибнут сотни людей и образовывается огромная трещина в земле. Во всеобщем хаосе Рэю предстоит отыскать свою дочь, но сделать это будет очень непросто. В надежде, что его ребенок все еще жив, он отправляется в смертельно опасное путешествие через весь штат...
--Качество: WEB-DL 720p
Контейнер: MKV
Видео кодек: AVC
Аудио кодек: AC3
Видео: AVC, 1280x540 (2.40:1), 5400 kbps, 23,976 fps, 0,326 bpp
Аудио №1: / AC3 / 2.0 / 48 kHz / 192 kbps / 16 bit
Аудио №2: / AC3 / 2.0 / 48 kHz / 384 kbps / 16 bit- -

Скриншоты

Media Info

General
Unique ID : 180934574209957664157688011293178845282 (0x881EBB3FF3E60625998F4B0B17B5D862)
Complete name : C:\Downloads\Разлом Сан-Андреас\San Andreas 2015.WEB.DL.720p.mkv
Format : Matroska
Format version : Version 4 / Version 2
File size : 4.78 GiB
Duration : 1h 54mn
Overall bit rate : 5 979 Kbps
Encoded date : UTC 2015-09-13 16:46:07
Writing application : mkvmerge v7.8.0 ('River Man') 32bit built on Mar 27 2015 16:18:02
Writing library : libebml v1.3.1 + libmatroska v1.4.2
DURATION : 01:54:24.640000000
NUMBER_OF_FRAMES : 214520
NUMBER_OF_BYTES : 329502720
_STATISTICS_WRITING_APP : mkvmerge v7.8.0 ('River Man') 32bit built on Mar 27 2015 16:18:02
_STATISTICS_WRITING_DATE_UTC : 2015-09-13 16:46:07
_STATISTICS_TAGS : BPS DURATION NUMBER_OF_FRAMES NUMBER_OF_BYTES
Video
ID : 1
Format : AVC
Format/Info : Advanced Video Codec
Format profile : High@L4.1
Format settings, CABAC : Yes
Format settings, ReFrames : 5 frames
Codec ID : V_MPEG4/ISO/AVC
Duration : 1h 54mn
Bit rate : 5 400 Kbps
Width : 1 280 pixels
Height : 540 pixels
Display aspect ratio : 2.40:1
Frame rate : 23.976 fps
Color space : YUV
Chroma subsampling : 4:2:0
Bit depth : 8 bits
Scan type : Progressive
Bits/(Pixel*Frame) : 0.326
Stream size : 4.22 GiB (88%)
Writing library : x264 core 146 r2538M 121396c
Encoding settings : cabac=1 / ref=5 / deblock=1:-1:-1 / analyse=0x3:0x133 / me=umh / subme=9 / psy=1 / psy_rd=1,00:0,20 / mixed_ref=1 / me_range=32 / chroma_me=1 / trellis=1 / 8x8dct=1 / cqm=0 / deadzone=21,11 / fast_pskip=1 / chroma_qp_offset=-3 / threads=6 / lookahead_threads=1 / sliced_threads=0 / nr=0 / decimate=1 / interlaced=0 / bluray_compat=0 / constrained_intra=0 / bframes=5 / b_pyramid=2 / b_adapt=2 / b_bias=0 / direct=3 / weightb=1 / open_gop=0 / weightp=2 / keyint=230 / keyint_min=23 / scenecut=40 / intra_refresh=0 / rc_lookahead=40 / rc=2pass / mbtree=1 / bitrate=5400 / ratetol=1,0 / qcomp=0,60 / qpmin=0 / qpmax=69 / qpstep=4 / cplxblur=20,0 / qblur=0,5 / ip_ratio=1,40 / aq=1:1,00
Language : English
Default : Yes
Forced : No
DURATION : 01:54:24.608000000
NUMBER_OF_FRAMES : 164586
NUMBER_OF_BYTES : 4634647067
_STATISTICS_WRITING_APP : mkvmerge v7.8.0 ('River Man') 32bit built on Mar 27 2015 16:18:02
_STATISTICS_WRITING_DATE_UTC : 2015-09-13 16:46:07
_STATISTICS_TAGS : BPS DURATION NUMBER_OF_FRAMES NUMBER_OF_BYTES
Audio #1
ID : 2
Format : AC-3
Format/Info : Audio Coding 3
Mode extension : CM (complete main)
Codec ID : A_AC3
Duration : 1h 54mn
Bit rate mode : Constant
Bit rate : 192 Kbps
Channel(s) : 2 channels
Channel positions : Front: L R
Sampling rate : 48.0 KHz
Bit depth : 16 bits
Compression mode : Lossy
Stream size : 157 MiB (3%)
Language : Russian
Default : Yes
Forced : No
Audio #2
ID : 3
Format : AC-3
Format/Info : Audio Coding 3
Mode extension : CM (complete main)
Codec ID : A_AC3
Duration : 1h 54mn
Bit rate mode : Constant
Bit rate : 384 Kbps
Channel(s) : 2 channels
Channel positions : Front: L R
Sampling rate : 48.0 KHz
Bit depth : 16 bits
Compression mode : Lossy
Stream size : 314 MiB (6%)
Language : English
Default : No
Forced : No

_________________
Показать сообщения:    

Текущее время: Сегодня 05:25

Часовой пояс: GMT



Вы не можете начинать темы
Вы не можете отвечать на сообщения
Вы не можете редактировать свои сообщения
Вы не можете удалять свои сообщения
Вы не можете голосовать в опросах
Вы не можете прикреплять файлы к сообщениям
Вы не можете скачивать файлы