Важное объявление!
У Нас Все раздачи мультитрекерные, при нуле пиров в релизах, можете смело вставать на закачку!
 
Автор Сообщение

HUNTER

Стаж:
4 года 4 месяца
Сообщений:
56722

Репутация: 101

[+] [-]
Вне форума [Профиль] [ЛС]

Разговор ангелов / Talk of Angels
Страна: США
Жанр: драма, мелодрама, военный
Год выпуска: 1998
Продолжительность: 01:33:26
Перевод: Профессиональный (двухголосый закадровый) НТВ+
Cубтитры: нет
Оригинальная аудиодорожка: нет
Режиссер: Ник Хэмм / Nick Hamm
В ролях: Полли Уокер, Венсан Перес, Франко Неро, Фрэнсис МакДорманд, Рут МакКейб, Мариса Паредес, Франсиско Рабаль, Пенелопа Крус, Ариадна Хиль, Росси де Пальма
Описание: Молодая учительница Мэри Лавель приезжает на новое место работы в страну, находящуюся на пороге кровавой гражданской войны. Девушке предстоит стать гувернанткой у дочерей богатого политика и землевладельца.
Здесь, в стенах величественного особняка, Мэри будет суждено встретить свою любовь в лице обворожительного, но женатого, сына хозяина.
Сэмпл: http://multi-up.com/966150

Тип релиза: HDTV 1080i
Контейнер: MKV
Видео: MPEG4 (H264) 1920x1080 (16:9) 25fps 7 437 Kbps
Аудио: AC3 2.0 ch 48 kHz 16 bit 448 Kbps

MediaInfo

General
Unique ID : 199852011290271975976109771118626000015 (0x965A18E89641C69E89C96E1E43ECCC8F)
Complete name : S:\Razgovor.angelov.DVO.HDTV.1080i.mkv
Format : Matroska
Format version : Version 4 / Version 2
File size : 5.25 GiB
Duration : 1h 33mn
Overall bit rate : 8 045 Kbps
Movie name : SharkN73 10.04.2014
Encoded date : UTC 2014-04-10 15:23:15
Writing application : mkvmerge v6.8.0 ('Theme for Great Cities') 64bit built on Mar 2 2014 21:34:26
Writing library : libebml v1.3.0 + libmatroska v1.4.1
Video
ID : 1
Format : AVC
Format/Info : Advanced Video Codec
Format profile : High@L4.0
Format settings, CABAC : Yes
Format settings, ReFrames : 3 frames
Format settings, GOP : M=4, N=28
Codec ID : V_MPEG4/ISO/AVC
Duration : 1h 33mn
Bit rate : 7 437 Kbps
Width : 1 920 pixels
Height : 1 080 pixels
Display aspect ratio : 16:9
Frame rate mode : Constant
Frame rate : 25.000 fps
Standard : Component
Color space : YUV
Chroma subsampling : 4:2:0
Bit depth : 8 bits
Scan type : Interlaced
Scan order : Top Field First
Bits/(Pixel*Frame) : 0.143
Stream size : 4.85 GiB (92%)
Language : English
Default : Yes
Forced : No
Color primaries : BT.709
Transfer characteristics : BT.709
Matrix coefficients : BT.709
Audio
ID : 2
Format : AC-3
Format/Info : Audio Coding 3
Mode extension : CM (complete main)
Format settings, Endianness : Big
Codec ID : A_AC3
Duration : 1h 33mn
Bit rate mode : Constant
Bit rate : 448 Kbps
Channel(s) : 2 channels
Channel positions : Front: L R
Sampling rate : 48.0 KHz
Bit depth : 16 bits
Compression mode : Lossy
Delay relative to video : 1ms
Stream size : 299 MiB (6%)
Language : Russian
Default : Yes
Forced : No

_________________
Показать сообщения:    

Текущее время: Сегодня 15:00

Часовой пояс: GMT



Вы не можете начинать темы
Вы не можете отвечать на сообщения
Вы не можете редактировать свои сообщения
Вы не можете удалять свои сообщения
Вы не можете голосовать в опросах
Вы не можете прикреплять файлы к сообщениям
Вы не можете скачивать файлы