Важное объявление!
У Нас Все раздачи мультитрекерные, при нуле пиров в релизах, можете смело вставать на закачку!
 
Автор Сообщение

HUNTER

Стаж:
4 года 4 месяца
Сообщений:
56790

Репутация: 101

[+] [-]
Вне форума [Профиль] [ЛС]

Разглядеть в темноте / Out in the Dark / Alata
Страна: Израиль, США
Жанр: драма
Год выпуска: 2012
Продолжительность: 01:31:30
Перевод: Jonas;
Озвучка: Василий Кошкин.
Cубтитры: английские (отдельным файлом)
Оригинальная аудиодорожка: иврит
Режиссер: Майкл Майер / Michael Mayer
В ролях: Nicholas Jacob, Michael Aloni, Jamil Khoury, Alon Pdut и др.
Описание: Драма о любви между двумя парнями на противоположных конфликтующих сторонах Среднего Востока: это палестинский студент Нимр и Рой, израильский адвокат.
Сэмпл: http://rusfolder.com/40785632
Тип релиза: HDTV 1080i
Контейнер: MKV
Видео: AVC, 1920х1080, 16:9, 7882 кбит/сек, 25,000 кадр/сек
Аудио 1: русский: AC-3, 2 канала, 48,0 КГц, 192 Кбит/сек
Аудио 2: иврит: AC-3, 2 канала, 48,0 КГц, 192 Кбит/сек
Формат субтитров: softsub (SRT)
MediaInfo
Общее
Уникальный идентификатор : 193680067670593046771652873595027517234 (0x91B56C98182102218B02457A5EC4EF32)
Полное имя : E:\Скаченное с Интернета\µTorrent новые\Out in the Dark\Out in the Dark.mkv
Формат : Matroska
Версия формата : Version 4 / Version 2
Размер файла : 5,39 Гбайт
Продолжительность : 1 ч. 31 м.
Общий поток : 8434 Кбит/сек
Дата кодирования : UTC 2014-05-24 02:58:50
Программа кодирования : mkvmerge v6.0.0 ('Coming Up For Air') built on Jan 20 2013 09:52:00
Библиотека кодирования : libebml v1.3.0 + libmatroska v1.4.0
Видео
Идентификатор : 1
Формат : AVC
Формат/Информация : Advanced Video Codec
Профиль формата : High@L4.0
Параметр CABAC формата : Да
Параметр ReFrames формата : 4 кадра
Идентификатор кодека : V_MPEG4/ISO/AVC
Продолжительность : 1 ч. 31 м.
Битрейт : 7882 Кбит/сек
Ширина : 1920 пикселей
Высота : 1080 пикселей
Соотношение сторон : 16:9
Частота кадров : 50,000 кадров/сек
Частота кадров в оригинале : 25,000 кадров/сек
Стандарт вещания : Component
Цветовое пространство : YUV
Субдискретизация насыщенности : 4:2:0
Битовая глубина : 8 бит
Тип развёртки : Чересстрочная
Порядок развёртки : Верхнее поле первое
Бит/(Пиксели*Кадры) : 0.076
Размер потока : 5,04 Гбайт (93%)
Default : Да
Forced : Нет
Основные цвета : BT.709-5, BT.1361, IEC 61966-2-4, SMPTE RP177
Характеристики трансфера : BT.709-5, BT.1361
Коэффициенты матрицы : BT.709-5, BT.1361, IEC 61966-2-4 709, SMPTE RP177
Аудио #1
Идентификатор : 2
Формат : AC-3
Формат/Информация : Audio Coding 3
Расширение режима : CM (complete main)
Параметр Endianness формата : Big
Идентификатор кодека : A_AC3
Продолжительность : 1 ч. 31 м.
Вид битрейта : Постоянный
Битрейт : 192 Кбит/сек
Каналы : 2 канала
Расположение каналов : Front: L R
Частота : 48,0 КГц
Битовая глубина : 16 бит
Метод сжатия : С потерями
Размер потока : 126 Мбайт (2%)
Язык : Russian
Default : Да
Forced : Нет
Аудио #2
Идентификатор : 3
Формат : AC-3
Формат/Информация : Audio Coding 3
Расширение режима : CM (complete main)
Параметр Endianness формата : Big
Идентификатор кодека : A_AC3
Продолжительность : 1 ч. 31 м.
Вид битрейта : Постоянный
Битрейт : 192 Кбит/сек
Каналы : 2 канала
Расположение каналов : Front: L R
Частота : 48,0 КГц
Битовая глубина : 16 бит
Метод сжатия : С потерями
Размер потока : 126 Мбайт (2%)
Язык : Hebrew
Default : Нет
Forced : Нет
Скриншоты

_________________
Показать сообщения:    

Текущее время: Сегодня 13:19

Часовой пояс: GMT



Вы не можете начинать темы
Вы не можете отвечать на сообщения
Вы не можете редактировать свои сообщения
Вы не можете удалять свои сообщения
Вы не можете голосовать в опросах
Вы не можете прикреплять файлы к сообщениям
Вы не можете скачивать файлы