Важное объявление!
У Нас Все раздачи мультитрекерные, при нуле пиров в релизах, можете смело вставать на закачку!
 
Автор Сообщение

HUNTER

Стаж:
4 года 4 месяца
Сообщений:
56829

Репутация: 101

[+] [-]
Вне форума [Профиль] [ЛС]

Развитие Сексуальности-

Год выпуска: 2008
Страна: Россия
Сайт производителя: be-sexy.ru
Тематика: Видео-семинар
Тип материала: Видеоурок-Продолжительность: 02:01:11
Автор: Олег Горячо-Язык: Русский
Субтитры: отсутствуют-Описание: То, без чего плохо работают навороченые техники пикапа и даже методы красивого влюбления и соблазнения тоже обречены на провал...
То, насколько ты сексуально привлекателен для девушки - один из самых ключевых моментов в соблазнении. Можешь заучить сотни техник знакомств и тысячи волшебных методик раздвижения женских ног, но... Если девушка не испытывает к тебе влечения, то шансы на успех стремительно приближаются к нулю. Максимум - барышне будет просто интересно проводить время в твоей компании.
-Качество: CAMRip
Формат: AVI
Видео кодек: XviD
Аудио кодек: MP3
Видео: XviD 1.2.1, 352x256 (4:3), 296-315 Кбит/сек, 25 кадр/сек
Аудио: MP3, 90,4-90,5 Кбит/сек, 32,0 КГц, стерео-

Доп. информация

СЕКСУАЛЬНЫЙ МУЖЧИНА вызывает желание у девушек, которое лишь нарастает со временем. Женщины возбуждаются от его взглядов, прикосновений, сами срывают с него одежду, оставшишь наедине. Милые домашние девочки, ухоженые тусовщицы, пафосные стервы, стриптизерши - все равно! Если девушка ТЕБЯ УЖЕ ХОЧЕТ, считай, что соблазнение закончено. Девушки не любят упускать свой шанс, да и секс любят не меньше, чем мы
Сейчас подробнее разберем, какие факторы определяют эту самую мужскую сексуальность, и над чем стоит работать.
Внешний вид. Он критичен. Это не значит, что ты должен быть обязательно загорелым мускулистым качком, иначе с этим делом тебе не будет везти еще 5 лет и 247 дней Сексуальный мужчина - в первую очередь ухоженный, стильный, харизматичный.
Взгляды, улыбки, невербальное поведение. Женщины очень тонко чувствуют собеседника, поэтому большое внимание стоит уделить имеено языку твоего собственного тела.
И, наконец, твой голос. То, КАК мужчина говорит - гораздо важнее того, ЧТО мужчина говорит девушке. Именно поэтому в соблазнении работает любая херня но, с одной оговоркой - при этом ты должен быть сексуально привлекательным!
Я хочу поделиться своим опытом, поэтому провел семинар на тему развития собственной сексуальности.
Посмотрев видео-запись семинара, ты узнаешь...
На первом DVD:
Кого любят красивые привлекательные девушки. План развития своей сексуальности.
От неудач с девушками до успешного соблазнителя - поиск волшебной таблетки. Отмазки перед собой.
Модель хорошего парня - ботаника. Модель ебаря-террориста. Почему "прожим" на секс и настойчивость не эффективны. "2 шага вперед, 1 назад" - недостатки этой модели поведения. Без чего не будут работать все техники "пикапа".
Работа со стилистом, ивестиции во внешность. Гарантия соблазнения.
Невербальное поведение. С чего начинается соблазнение. Повышаем твою эффективность - девушки стремяться поймать твой взгляд, сами подходят в клубе, на улице.
ОСНОВНАЯ ОШИБКА 90% ПАРНЕЙ. Почему девушкам нравится общаться с геями . Как девушки оценивают мужчин.
Гардероб соблазнителя. Распределение бюджета. Выбор ботинок. Вредные советы: как отбить желание у девушки ! Фигура идеального мужчины. Подбираем рубашку. Стильные аксессуары.
Методика формирования своего стиля.. Немного о голливуде.
Уход за кожей, правильное питание, распорядок дня. Сексуальность в мегаполисе.
Парфюмы, которые влияют на девушек. Как пользоваться парфюмом.
Стринги / семейники / боксеры - что одеть на свидание . Интимная стрижка.
Основные принципы качественного секса. Чем чревата манструбация.
Регулируем количество сна, контроль своей сексуальной энергии. Сновидения с девушками
На втором DVD:
Успехи учеников. "Меньше спишь, больше делаешь)"
Внутренние состояния, контроль над ними. Работа над своей самооценкой.
Позиции общения. Мужчина лидер. Общение с эффектными девушками.
Развитие мужской привлекательности: спорт в жизни успешного соблазнителя. Мужская харизма. Боевые искусства.
Грязные танцы - клубные соблазнения. Следим за дыханием.
Улыбки, взгляды киноактеров. Контроль своего настроения - всегда быть позитивно настроеным возможно! Эффективное начало коммуникации с девушкой.
Неадекватные моменты в соблазнении - жесткие техники. Информация к размышлению.
Работа над голосом. Упражение на снятие внутренних зажимов в теле. Дыхательная гимнастика. Развитие артикуляции.
И еще очень и очень много другой полезной информации...

MediaInfo

Код: copyText_writeLink('this.parentNode.parentNode.nextSibling.nextSibling'); General
Complete name : D:\обучение 25,12\Новая папка\Be-sexy\Sexuality_part1_low.avi
Format : AVI
Format/Info : Audio Video Interleave
Format profile : OpenDML
Format settings : rec
File size : 176 MiB
Duration : 1h 2mn
Overall bit rate mode : Variable
Overall bit rate : 393 Kbps
Writing application : AVI-Mux GUI 1.17.8.3, Feb 16 201019:42:50
Video
ID : 0
Format : MPEG-4 Visual
Format profile : Advanced Simple@L5
Format settings, BVOP : 1
Format settings, QPel : No
Format settings, GMC : No warppoints
Format settings, Matrix : Default (H.263)
Muxing mode : Packed bitstream
Codec ID : XVID
Codec ID/Hint : XviD
Duration : 1h 2mn
Bit rate : 296 Kbps
Width : 352 pixels
Height : 256 pixels
Display aspect ratio : 1.375
Frame rate : 25.000 fps
Color space : YUV
Chroma subsampling : 4:2:0
Bit depth : 8 bits
Scan type : Progressive
Compression mode : Lossy
Bits/(Pixel*Frame) : 0.131
Stream size : 133 MiB (75%)
Writing library : XviD 1.2.1 (UTC 2008-12-04)
Audio
ID : 1
Format : MPEG Audio
Format version : Version 1
Format profile : Layer 3
Mode : Joint stereo
Codec ID : 55
Codec ID/Hint : MP3
Duration : 1h 2mn
Bit rate mode : Variable
Bit rate : 90.5 Kbps
Nominal bit rate : 96.0 Kbps
Channel(s) : 2 channels
Sampling rate : 32.0 KHz
Compression mode : Lossy
Stream size : 40.6 MiB (23%)
Alignment : Aligned on interleaves
Interleave, duration : 36 ms (0.90 video frame)
Interleave, preload duration : 276 ms
Title : Sexuality_part1_low Tc0 L2 2ch 44.1 96 DELAY 0ms
Writing library : LAME3.98r
Encoding settings : -m j -V 4 -q 2 -lowpass 15.1 --abr 96
- -

_________________
Показать сообщения:    

Текущее время: Сегодня 11:20

Часовой пояс: GMT



Вы не можете начинать темы
Вы не можете отвечать на сообщения
Вы не можете редактировать свои сообщения
Вы не можете удалять свои сообщения
Вы не можете голосовать в опросах
Вы не можете прикреплять файлы к сообщениям
Вы не можете скачивать файлы