Важное объявление!
У Нас Все раздачи мультитрекерные, при нуле пиров в релизах, можете смело вставать на закачку!
 
Автор Сообщение

димитри37

Стаж:
3 года 8 месяцев
Сообщений:
1237

Репутация: 127

[+] [-]
Вне форума [Профиль] [ЛС]

Разведчица: Легенда об Ольге
Год выпуска: 2009
Производство: Юнайтед Мультимедиа Проджектс
Жанр: Биография, шпионский фильм
Продолжительность: 8 х ~ 00:52:00
Режиссёр: Кирилл Капица
В ролях: Ольга Погодина, Даниил Спиваковский, Илья Шакунов, Наталья Виноградова, Полина Волошина, Владимир Щербаков, Ярослав Иванов, Георгий Маришин, Мария Викторова, Евгения Кудинова, Игорь Маслобойников, Олег Алмазов, Сергей Мардарь, Евгений Леонов-Гладышев, Алексей Федотов, Артем Анчуков, Анастасия Дюкова, Дмитрий Сутырин, Сергей Мосьпан, Сергей Гамов
Описание: История жизни русской актрисы Ольги Чеховой. Первый брак, первое разочарование, после - поспешный отъезд в Германию. Там Ольгу ждала поистине удивительная судьба – она, неизвестная никому русская, стала Государственной актрисой Третьего Рейха, близким другом Гитлера и Геринга. Но это – лишь внешняя сторона истории Чеховой. Мало кому известно, что в конце 30-х Ольга была завербована советской разведкой и долгие годы пользовалась своими обширными связями в интересах СССР. В конце войны Ольга Чехова была тайно перевезена в Москву, а через несколько дней, также тайно, вернулась в Берлин. В эти дни Ольга Чехова встречалась с главой НКВД Лаврентием Берией. Ему, и только ему, она рассказала подлинную историю своей жизни.
Качество видео: DVDRip
Формат видео: AVI
Видео: DivX 5, 16:9, 1100 Кбит/с, 704x400, 25 кадров/сек, 0.156 бит/пиксел
Аудио: Русский, AC3, 6 ch, 384 Кбит/с

Медиаинфо

Формат : AVI
Формат/Информация : Audio Video Interleave
Размер файла : 555 Мбайт
Продолжительность : 51 м.
Общий поток : 1493 Кбит/сек
Программа кодирования : VirtualDubMod 1.5.10.2 (build 2540/release)
Библиотека кодирования : VirtualDubMod build 2540/release
Видео
Идентификатор : 0
Формат : MPEG-4 Visual
Параметр BVOP формата : Нет
Параметр QPel формата : Нет
Параметр GMC формата : Без точки перехода
Параметр матрицы формата : Default (H.263)
Идентификатор кодека : DX50
Идентификатор кодека/Подсказка : DivX 5
Продолжительность : 51 м.
Битрейт : 1100 Кбит/сек
Ширина : 704 пикселя
Высота : 400 пикселей
Соотношение сторон : 16:9
Частота кадров : 25,000 кадров/сек
Цветовое пространство : YUV
Субдискретизация насыщенности : 4:2:0
Битовая глубина : 8 бит
Тип развёртки : Прогрессивная
Метод сжатия : С потерями
Бит/(Пиксели*Кадры) : 0.156
Размер потока : 409 Мбайт (74%)
Библиотека кодирования : DivX 5.2.1 (WaffleDay) (UTC 2004-09-08)
Аудио
Идентификатор : 1
Формат : AC-3
Формат/Информация : Audio Coding 3
Расширение режима : CM (complete main)
Идентификатор кодека : 2000
Продолжительность : 51 м.
Вид битрейта : Постоянный
Битрейт : 384 Кбит/сек
Каналы : 6 каналов
Расположение каналов : Front: L C R, Side: L R, LFE
Частота : 48,0 КГц
Битовая глубина : 16 бит
Метод сжатия : С потерями
Размер потока : 143 Мбайт (26%)
Выравнивание : Разделение по промежуткам
Продолжительность промежутка : 40 мс. (1,00 видеокадр)
Время предзагрузки промежутка : 500 мс.

Скриншоты

-
Показать сообщения:    

Текущее время: Сегодня 15:46

Часовой пояс: GMT



Вы не можете начинать темы
Вы не можете отвечать на сообщения
Вы не можете редактировать свои сообщения
Вы не можете удалять свои сообщения
Вы не можете голосовать в опросах
Вы не можете прикреплять файлы к сообщениям
Вы не можете скачивать файлы