Важное объявление!
У Нас Все раздачи мультитрекерные, при нуле пиров в релизах, можете смело вставать на закачку!
 
Автор Сообщение

димитри37

Стаж:
3 года 8 месяцев
Сообщений:
1237

Репутация: 127

[+] [-]
Вне форума [Профиль] [ЛС]

Раз, два! Люблю тебя!
Год выпуска: 2012
Производство: Арт пикчерс
Жанр: Мелодрама
Продолжительность: 02:52:51
Субтитры: Отсутствуют
Режиссёр: Александра Бутько
В ролях: Екатерина Вилкова, Кристина Бабушкина, Андрей Мерзликин, Алексей Макаров, Нина Усатова, Юрий Кузнецов, Сергей Шеховцов, Сергей Серов и другие.
Описание: В этой искрометной народной комедии главная героиня Марина работает технологом на шоколадной фабрике. Ее муж уехал на заработки и она ждет не дождется его возвращения. Вместе с ней работает механик Андрей. Он безнадежно влюблен в Марину и он женат. И вдруг неожиданно обстоятельства складываются так, что главные герои становятся свободными от брачных уз. Тут то как раз Андрею и выпадает шанс наконец-то объясниться с Мариной. Но неожиданно для всех в один прекрасный день к удивлению Андрея и всех односельчан, в свою родную станицу Марина торжественно въезжает на роскошном розовом лимузине в компании обаятельного водителя Владимира.
Качество: HDTV 1080i
Контейнер: TS
Видео кодек: AVC
Аудио кодек: AC3
Видео: 1920x1080 (16:9) 25.000 fps 7 856 Kbps, 0.151 bit/pixel
Аудио: MPEG Audio 48000Hz stereo 192 Кбит/сек

Скриншоты


MI

GeneralID : 1 (0x1)Complete name : J:\ВЫКЛАДКА\HDTV\Сериалы\Раз, два! Люблю тебя! (2012, Мелодрама, HDTV) (MYDIMKA)\01 серия.tsFormat : MPEG-TSFile size : 2.48 GiBDuration : 42mn 3sOverall bit rate mode : VariableOverall bit rate : 8 430 Kbps
VideoID : 2911 (0xB5F)Menu ID : 1 (0x1)Format : AVCFormat/Info : Advanced Video CodecFormat profile : High@L4.0Format settings, CABAC : YesFormat settings, ReFrames : 3 framesCodec ID : 27Duration : 42mn 3sBit rate : 7 820 KbpsWidth : 1 920 pixelsHeight : 1 080 pixelsDisplay aspect ratio : 16:9Frame rate : 25.000 fpsColor space : YUVChroma subsampling : 4:2:0Bit depth : 8 bitsScan type : MBAFFBits/(Pixel*Frame) : 0.151Stream size : 2.30 GiB (93%)
AudioID : 2912 (0xB60)Menu ID : 1 (0x1)Format : MPEG AudioFormat version : Version 1Format profile : Layer 2Codec ID : 3Duration : 42mn 3sBit rate mode : ConstantBit rate : 192 KbpsChannel(s) : 2 channelsSampling rate : 48.0 KHzCompression mode : LossyStream size : 57.8 MiB (2%)Language : Russian
Показать сообщения:    

Текущее время: Сегодня 13:52

Часовой пояс: GMT



Вы не можете начинать темы
Вы не можете отвечать на сообщения
Вы не можете редактировать свои сообщения
Вы не можете удалять свои сообщения
Вы не можете голосовать в опросах
Вы не можете прикреплять файлы к сообщениям
Вы не можете скачивать файлы