Важное объявление!
У Нас Все раздачи мультитрекерные, при нуле пиров в релизах, можете смело вставать на закачку!
 
Автор Сообщение

HUNTER

Стаж:
4 года 4 месяца
Сообщений:
56765

Репутация: 101

[+] [-]
Вне форума [Профиль] [ЛС]

Работа с возражениями. Николай Самсонов
Страна: Россия
Тематика: тренинг продаж
Тип раздаваемого материала: Видеоурок
Продолжительность: 00:18:01
Год выпуска: 2012
Язык: Русский
Перевод: Не требуется
Описание: Фрагмент тренинга бизнес-тренера Самсонова Николая для специалистов по недвижимости на тему "Работа с возражениями", снятый на общероссийском форуме. Видео будет полезно любому, кто связан с продажами или обслуживанием.
Качество: CAMRip
Формат: WMV
Видео кодек: WMV3
Аудио кодек: WMA
Видео: 640x480 (4:3), 29.970 fps, 7000 kbps
Аудио: 48 kHz, 2 ch, 128 kbps

MediaInfo

Общее
Полное имя : I:\Работа с возражениями..wmv
Формат : Windows Media
Размер файла : 233 Мбайт
Продолжительность : 18 м.
Режим общего битрейта : Постоянный
Общий поток : 1812 Кбит/сек
Максимальный общий битрейт : 7185 Кбит/сек
Дата кодирования : UTC 2013-04-27 09:40:13.687
Обложка : Y
Видео
Идентификатор : 1
Формат : VC-1
Профиль формата : MP@ML
Идентификатор кодека : WMV3
Идентификатор кодека/Информация : Windows Media Video 9
Идентификатор кодека/Подсказка : WMV3
Описание кодека : Windows Media Video 9 - Professional
Продолжительность : 18 м.
Вид битрейта : Постоянный
Битрейт : 7000 Кбит/сек
Ширина : 640 пикселей
Высота : 480 пикселей
Соотношение сторон : 4:3
Частота кадров : 29,970 кадров/сек
Битовая глубина : 8 бит
Тип развёртки : Прогрессивная
Метод сжатия : С потерями
Бит/(Пиксели*Кадры) : 0.760
Размер потока : 902 Мбайт
Аудио
Идентификатор : 2
Формат : WMA
Профиль формата : Pro
Идентификатор кодека : 162
Идентификатор кодека/Информация : Windows Media Audio
Описание кодека : Windows Media Audio 10 Professional - 128 kbps, 48 kHz, 2 channel 16 bit (A/V) 1-pass CBR
Продолжительность : 18 м.
Вид битрейта : Постоянный
Битрейт : 128 Кбит/сек
Каналы : 2 канала
Частота : 48,0 КГц
Битовая глубина : 16 бит
Размер потока : 16,5 Мбайт (7%)

Скриншоты


_________________
Показать сообщения:    

Текущее время: Сегодня 03:27

Часовой пояс: GMT



Вы не можете начинать темы
Вы не можете отвечать на сообщения
Вы не можете редактировать свои сообщения
Вы не можете удалять свои сообщения
Вы не можете голосовать в опросах
Вы не можете прикреплять файлы к сообщениям
Вы не можете скачивать файлы