Важное объявление!
У Нас Все раздачи мультитрекерные, при нуле пиров в релизах, можете смело вставать на закачку!
 
Автор Сообщение

HUNTER

Стаж:
4 года 4 месяца
Сообщений:
56719

Репутация: 101

[+] [-]
Вне форума [Профиль] [ЛС]

Рaльф / Wreсk-Іt Rаlph«Хорошего друга должно быть много»Локализованный видеоряд-
Страна: США
Жанр: комедия, приключения, семейный
Продолжительность: 01:41:13
Год выпуска: 2012
Перевод: Профессиональный (дублированный) Blu-ray CEE
Перевод 2: Авторский (одноголосый закадровый) Ю.Сербин
Перевод 3: Профессиональный (дублированный) Ukr отдельно
Русские субтитры: есть
Режиссёр: Рич Мур / Rich Moore
Роли озвучивали: Джон Си Райли (Станислав Дужников), Джек МакБрайер (Александр Гудков), Сара Силверман (Наталия Медведева), Джейн Линч (Регина Щукина), Алан Тьюдик (Валентин Морозов), Джо Ло Трульо (Станислав Концевич), Минди Калинг, Эд О’Нил, Деннис Хейсбёрт, Эди МакКлёрг, Рэймонд С. Перси, Джесс Харнелл, Рэйчел Харрис, Скайлар Эстин, Адам Каролла, Хорэйшио Сэнс, Морис ЛаМарш, Стефани Скотт, Джон Ди Маджио, Рич Мур, Кэти Лоус, Джеми Элман-ОписаниеРальф — второстепенный персонаж восьмибитной компьютерной игры, и ему надоело находиться в тени главного героя, мастера на все руки Феликса, который всегда появляется, чтобы «исправить» ситуацию! После тридцати лет добросовестной работы в роли злодея, в течение которых все похвалы выпадали на долю Феликса, Ральф больше не хочет быть плохим.
Он решает отправиться в путешествие по аркадным играм разных жанров, чтобы доказать всем, что и он тоже может быть героем. На своем пути Ральф встречает героев разных игр — хладнокровную сержанта Калхун из игры Hero’s Duty, оберегающую планету от нашествия инопланетных захватчиков, и сладкую на вид, но острую на язычок Сластену фон Дю, чье существование в гоночном симуляторе Sugar Rush внезапно оказывается под угрозой. Наконец-то Ральфу выпадает шанс показать, что он умеет не только разрушать!-Сэмпл

IMDb: 7.80 (179 531)
Качество: BDRip-AVC Blu-ray CEE 1080p HDClub
Формат: MKV
Видео: AVC 2965 Kbps 1152 x 482 (2.390) 23.976 fps
Аудио: AC-3 384 Kbps 6 channels, 48.0 KHz Rus DUB Blu-ray CEE
Аудио 2: AC-3 384 Kbps 6 channels, 48.0 KHz AVO Ю.Сербин
Аудио 3: AC-3 384 Kbps 6 channels, 48.0 KHz Eng
Аудио 4: AC-3 384 Kbps 6 channels, 48.0 KHz Ukr отдельно
Субтитры: Rus, Eng, Ukr

MI | Log

Log
x264 [info]: frame I:1312 Avg QP:12.22 size:139860
x264 [info]: frame P:39470 Avg QP:16.62 size: 29365
x264 [info]: frame B:104836 Avg QP:21.55 size: 8665
x264 [info]: consecutive B-frames: 5.0% 4.5% 11.9% 38.8% 18.9% 16.5% 2.0% 1.0% 0.4% 0.4% 0.1% 0.2% 0.3%
x264 [info]: mb I I16..4: 10.3% 48.0% 41.6%
x264 [info]: mb P I16..4: 1.5% 9.6% 3.4% P16..4: 26.6% 27.3% 11.7% 3.3% 0.7% skip:15.8%
x264 [info]: mb B I16..4: 0.2% 1.8% 0.6% B16..8: 27.2% 14.3% 2.9% direct: 3.3% skip:49.7% L0:42.5% L1:44.2% BI:13.3%
x264 [info]: 8x8 transform intra:64.7% inter:51.1%
x264 [info]: direct mvs spatial:95.2% temporal:4.8%
x264 [info]: coded y,uvDC,uvAC intra: 81.1% 90.5% 76.8% inter: 15.6% 20.2% 11.3%
x264 [info]: i16 v,h,dc,p: 11% 18% 7% 64%
x264 [info]: i8 v,h,dc,ddl,ddr,vr,hd,vl,hu: 11% 10% 7% 9% 12% 11% 14% 11% 15%
x264 [info]: i4 v,h,dc,ddl,ddr,vr,hd,vl,hu: 21% 11% 5% 8% 12% 10% 12% 9% 12%
x264 [info]: i8c dc,h,v,p: 37% 27% 17% 19%
x264 [info]: Weighted P-Frames: Y:2.6% UV:2.0%
x264 [info]: ref P L0: 51.4% 7.7% 14.7% 6.8% 4.4% 3.9% 2.9% 1.9% 1.5% 1.5% 1.3% 1.5% 0.4% 0.0%
x264 [info]: ref B L0: 75.4% 9.5% 5.7% 2.4% 2.3% 1.4% 1.2% 0.7% 0.7% 0.4% 0.3%
x264 [info]: ref B L1: 91.3% 8.7%
x264 [info]: kb/s:2964.88
x264 [total]: encoded 145618 frames, 9.76 fps, 2964.88 kb/s, duration 4:08:46.36
Format                                   : MatroskaFormat version                           : Version 4 / Version 2File size                                : 2.91 GiBDuration                                 : 1h 41mnOverall bit rate                         : 4 119 KbpsEncoded date                             : UTC 2014-08-23 22:26:15Writing application                      : mkvmerge v6.7.0 ('Back to the Ground') 32bit built on Jan  8 2014 15:03:17Writing library                          : libebml v1.3.0 + libmatroska v1.4.1
VideoID : 1Format : AVCFormat/Info : Advanced Video CodecFormat profile : High@L4.1Format settings, CABAC : YesFormat settings, ReFrames : 12 framesCodec ID : V_MPEG4/ISO/AVCDuration : 1h 41mnBit rate : 2 965 KbpsWidth : 1 152 pixelsHeight : 482 pixelsDisplay aspect ratio : 2.40:1Frame rate mode : ConstantFrame rate : 23.976 fpsColor space : YUVChroma subsampling : 4:2:0Bit depth : 8 bitsScan type : ProgressiveBits/(Pixel*Frame) : 0.223Stream size : 2.04 GiB (70%)Writing library : x264 core 142 r2453kMod ea0ca51Encoding settings : cabac=1 / ref=12 / deblock=1:-2:-1 / analyse=0x3:0x133 / me=umh / subme=11 / psy=1 / fade_compensate=0.00 / psy_rd=1.00:0.05 / mixed_ref=1 / me_range=32 / chroma_me=1 / trellis=2 / 8x8dct=1 / cqm=0 / deadzone=21,11 / fast_pskip=0 / chroma_qp_offset=-3 / threads=12 / lookahead_threads=3 / sliced_threads=0 / nr=0 / decimate=1 / interlaced=0 / bluray_compat=0 / constrained_intra=0 / fgo=0 / bframes=12 / b_pyramid=2 / b_adapt=2 / b_bias=0 / direct=3 / weightb=1 / open_gop=0 / weightp=2 / keyint=250 / keyint_min=23 / scenecut=40 / intra_refresh=0 / rc_lookahead=40 / rc=2pass / mbtree=1 / bitrate=2965 / ratetol=1.0 / qcomp=0.60 / qpmin=0 / qpmax=69 / qpstep=4 / cplxblur=20.0 / qblur=0.5 / ip_ratio=1.40 / aq=3:0.90Language : EnglishDefault : YesForced : No
Audio #1ID : 2Format : AC-3Format/Info : Audio Coding 3Mode extension : CM (complete main)Format settings, Endianness : BigCodec ID : A_AC3Duration : 1h 41mnBit rate mode : ConstantBit rate : 384 KbpsChannel(s) : 6 channelsChannel positions : Front: L C R, Side: L R, LFESampling rate : 48.0 KHzBit depth : 16 bitsCompression mode : LossyStream size : 278 MiB (9%)Title : Dub (Blu-ray 3D CEE )Language : RussianDefault : YesForced : No
Audio #2ID : 3Format : AC-3Format/Info : Audio Coding 3Mode extension : CM (complete main)Format settings, Endianness : BigCodec ID : A_AC3Duration : 1h 41mnBit rate mode : ConstantBit rate : 384 KbpsChannel(s) : 6 channelsChannel positions : Front: L C R, Side: L R, LFESampling rate : 48.0 KHzBit depth : 16 bitsCompression mode : LossyStream size : 278 MiB (9%)Title : AVO (U. Serbin)Language : RussianDefault : NoForced : No
Audio #3ID : 4Format : AC-3Format/Info : Audio Coding 3Mode extension : CM (complete main)Format settings, Endianness : BigCodec ID : A_AC3Duration : 1h 41mnBit rate mode : ConstantBit rate : 384 KbpsChannel(s) : 6 channelsChannel positions : Front: L C R, Side: L R, LFESampling rate : 48.0 KHzBit depth : 16 bitsCompression mode : LossyStream size : 278 MiB (9%)Title : OriginalLanguage : EnglishDefault : NoForced : No
Text #1ID : 5Format : UTF-8Codec ID : S_TEXT/UTF8Codec ID/Info : UTF-8 Plain TextTitle : ForcedLanguage : RussianDefault : YesForced : No
Text #2ID : 6Format : UTF-8Codec ID : S_TEXT/UTF8Codec ID/Info : UTF-8 Plain TextTitle : FULLLanguage : RussianDefault : NoForced : No
Text #3ID : 7Format : UTF-8Codec ID : S_TEXT/UTF8Codec ID/Info : UTF-8 Plain TextTitle : ForcedLanguage : UkrainianDefault : NoForced : No
Text #4ID : 8Format : UTF-8Codec ID : S_TEXT/UTF8Codec ID/Info : UTF-8 Plain TextTitle : FULLLanguage : UkrainianDefault : NoForced : No
Text #5ID : 9Format : UTF-8Codec ID : S_TEXT/UTF8Codec ID/Info : UTF-8 Plain TextLanguage : EnglishDefault : NoForced : No
Text #6ID : 10Format : UTF-8Codec ID : S_TEXT/UTF8Codec ID/Info : UTF-8 Plain TextTitle : SDHLanguage : EnglishDefault : NoForced : No
Menu00:00:00.000 : en:Opening Titles00:07:12.139 : en:30 Years00:16:34.910 : en:Hero's Duty00:27:07.500 : en:Sugar Rush00:37:25.951 : en:The Glitch00:44:46.683 : en:Going Turbo00:48:45.130 : en:Making A Car00:51:36.009 : en:Driving Lessons00:58:56.032 : en:King Candy's Secret01:09:07.893 : en:Out Of Order01:13:39.623 : en:Every Day Of My Life01:15:56.801 : en:The Race01:18:52.977 : en:Cy-Bug Invasion01:21:53.741 : en:Can't Leave The Game01:27:25.364 : en:One Game At A Time01:33:10.542 : en:End Credits

Скриншоты


_________________
Показать сообщения:    

Текущее время: Сегодня 23:07

Часовой пояс: GMT



Вы не можете начинать темы
Вы не можете отвечать на сообщения
Вы не можете редактировать свои сообщения
Вы не можете удалять свои сообщения
Вы не можете голосовать в опросах
Вы не можете прикреплять файлы к сообщениям
Вы не можете скачивать файлы