Важное объявление!
У Нас Все раздачи мультитрекерные, при нуле пиров в релизах, можете смело вставать на закачку!
 
Автор Сообщение

HUNTER

Стаж:
4 года 4 месяца
Сообщений:
56798

Репутация: 101

[+] [-]
Вне форума [Профиль] [ЛС]

-Пятьдесят оттенков черного / Fifty Shades of Black
-Страна: США
Жанр: комедия
Год выпуска: 2016
Продолжительность: 01:28:02-Перевод: Профессиональный (дублированный) iTunes
Cубтитры: нет
Оригинальная аудиодорожка: нет
Режиссер: Майкл Тиддес / Michael Tiddes-В ролях: Марлон Уайанс, Кали Хоук, Фред Уиллард, Майк Эппс, Эффион Крокетт, Джейн Сеймур, Флоренс Хендерсон, Эндрю Бэчелор, Дженни Зигрино, Кейт Лэнг Джонсон-Описание: Неискушенная студентка колледжа знакомится с состоятельным бизнесменом, чьи сексуальные предпочтения омрачают их отношения.- -Качество видео: WEB-DL 1080p
Формат видео: MKV
Видео: AVC, 1 920x804 (2.40:1), 25.000 fps, ~4 391 kbps avg, 0.114 bit/pixel
Аудио: 48 kHz, AC3 Dolby Digital, 3/2 (L,C,R,l,r) + LFE ch, ~384 kbps-

MediaInfo

General
Unique ID : 198300785859449857026180681362303686322 (0x952F579706A68051BD702CEF406D16B2)
Complete name : D:\Фильмы\Fifty.Shades.of.Black.2016.1080p.WEB-DL.mkv
Format : Matroska
Format version : Version 2
File size : 3.00 GiB
Duration : 1h 28mn
Overall bit rate : 4 872 Kbps
Movie name : Fifty Shades of Black (2016) - Release for HDCLUB
Encoded date : UTC 2016-03-30 21:54:29
Writing application : mkvmerge v3.4.0 ('Rapunzel') built on May 15 2010 09:38:20
Writing library : libebml v0.8.0 + libmatroska v0.9.0
Video
ID : 1
Format : AVC
Format/Info : Advanced Video Codec
Format profile : High@L4
Format settings, CABAC : Yes
Format settings, ReFrames : 5 frames
Codec ID : V_MPEG4/ISO/AVC
Duration : 1h 28mn
Bit rate : 4 391 Kbps
Width : 1 920 pixels
Height : 804 pixels
Display aspect ratio : 2.40:1
Frame rate mode : Constant
Frame rate : 25.000 fps
Color space : YUV
Chroma subsampling : 4:2:0
Bit depth : 8 bits
Scan type : Progressive
Bits/(Pixel*Frame) : 0.114
Stream size : 2.70 GiB (90%)
Title : Fifty Shades of Black (2016) - Release for HDCLUB
Language : English
Default : Yes
Forced : No
Color range : Limited
Color primaries : BT.709
Transfer characteristics : BT.709
Matrix coefficients : BT.709
Audio
ID : 2
Format : AC-3
Format/Info : Audio Coding 3
Mode extension : CM (complete main)
Format settings, Endianness : Big
Codec ID : A_AC3
Duration : 1h 28mn
Bit rate mode : Constant
Bit rate : 384 Kbps
Channel(s) : 6 channels
Channel positions : Front: L C R, Side: L R, LFE
Sampling rate : 48.0 KHz
Frame rate : 31.250 fps (1536 spf)
Compression mode : Lossy
Stream size : 242 MiB (8%)
Title : AC3 5.1 @ 384 kbps - DUB, iTunes
Language : Russian
Default : Yes
Forced : No
Menu
00:00:00.000 : en:1
00:02:33.320 : en:2
00:08:58.520 : en:3
00:14:53.200 : en:4
00:20:10.400 : en:5
00:25:35.520 : en:6
00:31:15.440 : en:7
00:36:06.960 : en:8
00:42:32.600 : en:9
00:47:08.920 : en:10
00:57:02.160 : en:11
01:01:58.200 : en:12
01:09:52.800 : en:13
01:16:55.680 : en:14

-

Скриншот c названием фильма

Скриншоты



-

_________________
Показать сообщения:    

Текущее время: Сегодня 08:24

Часовой пояс: GMT



Вы не можете начинать темы
Вы не можете отвечать на сообщения
Вы не можете редактировать свои сообщения
Вы не можете удалять свои сообщения
Вы не можете голосовать в опросах
Вы не можете прикреплять файлы к сообщениям
Вы не можете скачивать файлы