Важное объявление!
У Нас Все раздачи мультитрекерные, при нуле пиров в релизах, можете смело вставать на закачку!
 
Автор Сообщение

HUNTER

Стаж:
4 года 4 месяца
Сообщений:
56842

Репутация: 101

[+] [-]
Вне форума [Профиль] [ЛС]

Пятерка кладоискателей / Treasure Buddies -Год выпуска: 2010
Страна: США
Жанр: Комедия, Приключения, Семейный
Продолжительность: 01:29:04
Перевод: Полное дублирование [лицензия]
Субтитры: Английские, Украинские, Русские, Латышские, Литовские, Эстонские-Режиссёр: Роберт Винс-В ролях: Ричард Риле, Эдвард Херрманн, Мэйсон Кук, Адам Алекси-Маль, Таккер Албрицци, Duke the Bloodhound, Филд Кейт, Мэтт Галлини, Ranya Jaber, Кейтлин Мехер
Описание: Великолепная Пятерка и ее новые друзья, должны приложить все силы к тому, чтобы перехитрить коварную кошку, разгадать сложные загадки и проникнуть в таинственную гробницу. И все это — ради величайшего сокровища животного мира.-Качество: DVD5 (исходник DVD9)
Формат: MPEG-PS
Видео кодек: MPEG2
Аудио кодек: AC3
Видео: MPEG2 Video 1024x576 (720x576) (16:9) 25.00fps , 9800kbps
Аудио: Dolby AC3 48000Hz 6ch 384kbps (Английский и Русский)-

минфо

General
Complete name \Pjaterka.kladoiskatelej.2010.DVD-5\VIDEO_TS\VTS_01_3.VOB
Format : MPEG-PS
File size : 1 024 MiB
Duration : 23mn 25s
Overall bit rate mode : Variable
Overall bit rate : 6 110 Kbps
Video
ID : 224 (0xE0)
Format : MPEG Video
Format version : Version 2
Format profile : Main@Main
Format settings, BVOP : Yes
Format settings, Matrix : Custom
Duration : 23mn 25s
Bit rate mode : Variable
Bit rate : 5 220 Kbps
Maximum bit rate : 9 800 Kbps
Width : 720 pixels
Height : 576 pixels
Display aspect ratio : 16:9
Frame rate : 25.000 fps
Standard : PAL
Color space : YUV
Chroma subsampling : 4:2:0
Bit depth : 8 bits
Scan type : Progressive
Scan order : Top Field First
Compression mode : Lossy
Bits/(Pixel*Frame) : 0.503
Stream size : 875 MiB (85%)
Audio #1
ID : 189 (0xBD)-128 (0x80)
Format : AC-3
Format/Info : Audio Coding 3
Mode extension : CM (complete main)
Muxing mode : DVD-Video
Duration : 23mn 25s
Bit rate mode : Constant
Bit rate : 384 Kbps
Channel(s) : 6 channels
Channel positions : Front: L C R, Side: L R, LFE
Sampling rate : 48.0 KHz
Bit depth : 16 bits
Compression mode : Lossy
Delay relative to video : -784ms
Stream size : 64.4 MiB (6%)
Audio #2
ID : 189 (0xBD)-129 (0x81)
Format : AC-3
Format/Info : Audio Coding 3
Mode extension : CM (complete main)
Muxing mode : DVD-Video
Duration : 23mn 25s
Bit rate mode : Constant
Bit rate : 384 Kbps
Channel(s) : 6 channels
Channel positions : Front: L C R, Side: L R, LFE
Sampling rate : 48.0 KHz
Bit depth : 16 bits
Compression mode : Lossy
Delay relative to video : -816ms
Stream size : 64.4 MiB (6%)
Text #1
ID : 189 (0xBD)-32 (0x20)
Format : RLE
Format/Info : Run-length encoding
Muxing mode : DVD-Video
Duration : 23mn 24s
Delay relative to video : 240ms
Text #2
ID : 189 (0xBD)-33 (0x21)
Format : RLE
Format/Info : Run-length encoding
Muxing mode : DVD-Video
Duration : 23mn 24s
Delay relative to video : 240ms
Text #3
ID : 189 (0xBD)-34 (0x22)
Format : RLE
Format/Info : Run-length encoding
Muxing mode : DVD-Video
Duration : 23mn 24s
Delay relative to video : 240ms
Text #4
ID : 189 (0xBD)-35 (0x23)
Format : RLE
Format/Info : Run-length encoding
Muxing mode : DVD-Video
Duration : 23mn 24s
Delay relative to video : 240ms
Text #5
ID : 189 (0xBD)-36 (0x24)
Format : RLE
Format/Info : Run-length encoding
Muxing mode : DVD-Video
Duration : 23mn 24s
Delay relative to video : 240ms
Text #6
ID : 189 (0xBD)-37 (0x25)
Format : RLE
Format/Info : Run-length encoding
Muxing mode : DVD-Video
Duration : 23mn 24s
Delay relative to video : 240ms
Text #7
ID : 189 (0xBD)-38 (0x26)
Format : RLE
Format/Info : Run-length encoding
Muxing mode : DVD-Video
Duration : 23mn 24s
Delay relative to video : 240ms
Text #8
ID : 189 (0xBD)-40 (0x28)
Format : RLE
Format/Info : Run-length encoding
Muxing mode : DVD-Video
Duration : 23mn 24s
Delay relative to video : 240ms
Text #9
ID : 189 (0xBD)-41 (0x29)
Format : RLE
Format/Info : Run-length encoding
Muxing mode : DVD-Video
Duration : 23mn 24s
Delay relative to video : 240ms
Text #10
ID : 189 (0xBD)-42 (0x2A)
Format : RLE
Format/Info : Run-length encoding
Muxing mode : DVD-Video
Duration : 23mn 24s
Delay relative to video : 240ms
Text #11
ID : 189 (0xBD)-43 (0x2B)
Format : RLE
Format/Info : Run-length encoding
Muxing mode : DVD-Video
Duration : 23mn 24s
Delay relative to video : 240ms
Text #12
ID : 189 (0xBD)-44 (0x2C)
Format : RLE
Format/Info : Run-length encoding
Muxing mode : DVD-Video
Duration : 23mn 24s
Delay relative to video : 240ms
Text #13
ID : 189 (0xBD)-45 (0x2D)
Format : RLE
Format/Info : Run-length encoding
Muxing mode : DVD-Video
Duration : 23mn 24s
Delay relative to video : 240ms
Text #14
ID : 189 (0xBD)-46 (0x2E)
Format : RLE
Format/Info : Run-length encoding
Muxing mode : DVD-Video
Duration : 23mn 24s
Delay relative to video : 240ms
Menu

Скриншоты




_________________
Показать сообщения:    

Текущее время: Сегодня 12:44

Часовой пояс: GMT



Вы не можете начинать темы
Вы не можете отвечать на сообщения
Вы не можете редактировать свои сообщения
Вы не можете удалять свои сообщения
Вы не можете голосовать в опросах
Вы не можете прикреплять файлы к сообщениям
Вы не можете скачивать файлы