Важное объявление!
У Нас Все раздачи мультитрекерные, при нуле пиров в релизах, можете смело вставать на закачку!
 
Автор Сообщение

HUNTER

Стаж:
4 года 4 месяца
Сообщений:
56829

Репутация: 101

[+] [-]
Вне форума [Профиль] [ЛС]

Пятая власть / The Fifth Estate
Страна: Великобритания, Бельгия
Жанр: триллер, драма, биография
Год выпуска: 2013
Продолжительность: 02:08:15
Перевод: Профессиональный (дублированный)
Cубтитры: английские, русские
Режиссер: Билл Кондон / Bill Condon
В ролях: Бенедикт Камбербэтч, Даниэль Брюль, Дэвид Тьюлис, Алисия Викандер, Лора Линни, Стэнли Туччи, Энтони Маки, Питер Капальди, Мориц Бляйбтрой, Джейми Блэкли
Описание: В мире, где информация ценится превыше всего, а утечка сведений под грифом «секретно» может вызвать необратимые последствия, сайт WikiLeaks навсегда поменял правила игры. Фильм, основанный на реальных событиях, рассказывает о попытке разоблачить государственную коррупцию и ложь властей, которая превратила интернет-стартап в одну из самых известных и обсуждаемых организаций 21-го века. За первые годы существования WIKILEAKS обнародовал больше тайн, чем самые влиятельные в мире СМИ вместе взятые, раскрывая постыдные секреты государственных служб и финансовые преступления корпораций. Но когда основатели сайта получили доступ к крупнейшему засекреченному архиву США, им предстояло найти для себя ответ на один из важнейших вопросов современности: какова цена тайны в свободном обществе – и какова цена ее разглашения?
Бонусы: Эксклюзивные материалы
Сэмпл: http://sendfile.su/944189
Тип релиза: Blu-ray disc
Контейнер: BDMV
Видео: MPEG-4 AVC Video / 33512 kbps / 1080p / 23,976 fps / 16:9 / High Profile 4.1
Аудио 1: English DTS-HD Master Audio / 5.1 / 48 kHz / 3459 kbps / 24-bit (DTS Core: 5.1 / 48 kHz / 1509 kbps / 24-bit)
Аудио 2: English Dolby Digital Audio / 2.0 / 48 kHz / 320 kbps / Dolby Surround (Комментарии)
Аудио 3: Russian Dolby Digital Audio / 5.1 / 48 kHz / 640 kbps

BDInfo

Disc Title: The Fifth Estate
Disc Size: 43 893 965 876 bytes
Protection: AACS
BD-Java: Yes
BDInfo: 0.5.8
Notes:
BDINFO HOME:
Cinema Squid
http://www.cinemasquid.com/blu-ray/tools/bdinfo
INCLUDES FORUMS REPORT FOR:
AVS Forum Blu-ray Audio and Video Specifications Thread
http://www.avsforum.com/avs-vb/showthread.php?t=1155731
********************
PLAYLIST: 00800.MPLS
********************
<--- BEGIN FORUMS PASTE --->
Код:
Total   Video
Title                                                           Codec   Length  Movie Size      Disc Size       Bitrate Bitrate Main Audio Track                          Secondary Audio Track
-----                                                           ------  ------- --------------  --------------  ------- ------- ------------------                        ---------------------
00800.MPLS                                                      AVC     2:08:15 38 655 952 896  43 893 965 876  40,18   33,55   DTS-HD Master 5.1 3457Kbps (48kHz/24-bit)
Код:
DISC INFO:
Disc Title:     The Fifth Estate
Disc Size:      43 893 965 876 bytes
Protection:     AACS
BD-Java:        Yes
BDInfo:         0.5.8
PLAYLIST REPORT:
Name:                   00800.MPLS
Length:                 2:08:15.729 (h:m:s.ms)
Size:                   38 655 952 896 bytes
Total Bitrate:          40,18 Mbps
VIDEO:
Codec                   Bitrate             Description
-----                   -------             -----------
MPEG-4 AVC Video        33550 kbps          1080p / 23,976 fps / 16:9 / High Profile 4.1
AUDIO:
Codec                           Language        Bitrate         Description
-----                           --------        -------         -----------
DTS-HD Master Audio             English         3457 kbps       5.1 / 48 kHz / 3457 kbps / 24-bit (DTS Core: 5.1 / 48 kHz / 1509 kbps / 24-bit)
Dolby Digital Audio             English         320 kbps        2.0 / 48 kHz / 320 kbps / Dolby Surround
Dolby Digital Audio             Russian         640 kbps        5.1 / 48 kHz / 640 kbps
SUBTITLES:
Codec                           Language        Bitrate         Description
-----                           --------        -------         -----------
Presentation Graphics           English         48,832 kbps
Presentation Graphics           English         42,700 kbps
Presentation Graphics           Russian         44,461 kbps
Presentation Graphics           English         0,449 kbps
Presentation Graphics           Russian         2,303 kbps
FILES:
Name            Time In         Length          Size            Total Bitrate
----            -------         ------          ----            -------------
00919.M2TS      0:00:00.000     0:01:20.288     435 707 904     43 414
00930.M2TS      0:01:20.288     0:00:05.046     26 191 872      41 519
00931.M2TS      0:01:25.335     2:06:50.394     38 194 053 120  40 149
CHAPTERS:
Number          Time In         Length          Avg Video Rate  Max 1-Sec Rate  Max 1-Sec Time  Max 5-Sec Rate  Max 5-Sec Time  Max 10Sec Rate  Max 10Sec Time  Avg Frame Size  Max Frame Size  Max Frame Time
------          -------         ------          --------------  --------------  --------------  --------------  --------------  --------------  --------------  --------------  --------------  --------------
1               0:00:00.000     0:05:53.144     34 373 kbps     54 187 kbps     00:00:29.988    41 084 kbps     00:00:25.984    39 354 kbps     00:00:20.979    179 186 bytes   638 632 bytes   00:00:30.739
2               0:05:53.144     0:06:25.301     34 450 kbps     43 927 kbps     00:05:58.066    38 841 kbps     00:05:54.062    37 905 kbps     00:11:19.303    179 606 bytes   550 346 bytes   00:05:58.775
3               0:12:18.446     0:07:16.561     33 433 kbps     45 717 kbps     00:16:54.471    38 156 kbps     00:18:28.816    37 731 kbps     00:17:03.605    174 303 bytes   554 045 bytes   00:17:13.615
4               0:19:35.007     0:06:42.985     34 366 kbps     43 837 kbps     00:21:14.064    39 061 kbps     00:21:10.143    38 343 kbps     00:21:05.055    179 168 bytes   636 248 bytes   00:21:15.857
5               0:26:17.993     0:07:59.479     33 895 kbps     39 984 kbps     00:26:47.063    38 189 kbps     00:26:42.934    37 945 kbps     00:26:38.138    176 714 bytes   487 825 bytes   00:34:17.472
6               0:34:17.472     0:06:14.248     34 376 kbps     44 016 kbps     00:37:06.891    38 685 kbps     00:36:51.083    38 174 kbps     00:34:34.447    179 221 bytes   531 444 bytes   00:34:45.082
7               0:40:31.720     0:06:22.131     33 217 kbps     41 115 kbps     00:41:32.823    37 821 kbps     00:41:28.861    36 816 kbps     00:41:02.751    173 176 bytes   308 801 bytes   00:41:33.532
8               0:46:53.852     0:08:04.483     35 234 kbps     41 058 kbps     00:51:44.976    38 374 kbps     00:51:40.764    37 881 kbps     00:53:07.851    183 692 bytes   497 403 bytes   00:54:58.336
9               0:54:58.336     0:06:31.516     33 339 kbps     41 332 kbps     00:55:01.214    38 031 kbps     00:59:24.686    37 884 kbps     00:56:58.581    173 814 bytes   625 163 bytes   00:55:01.381
10              1:01:29.852     0:05:08.266     32 940 kbps     41 144 kbps     01:04:50.595    37 970 kbps     01:04:14.433    37 801 kbps     01:04:13.349    171 734 bytes   330 407 bytes   01:03:58.709
11              1:06:38.119     0:08:01.147     34 134 kbps     40 928 kbps     01:06:38.285    38 139 kbps     01:10:39.735    37 907 kbps     01:08:24.809    177 959 bytes   398 395 bytes   01:06:42.998
12              1:14:39.266     0:05:51.684     33 038 kbps     41 069 kbps     01:14:41.101    38 201 kbps     01:15:16.511    37 910 kbps     01:15:11.465    172 247 bytes   600 588 bytes   01:14:42.102
13              1:20:30.951     0:11:35.027     34 719 kbps     40 875 kbps     01:31:59.138    38 387 kbps     01:31:55.092    37 943 kbps     01:31:50.046    181 009 bytes   402 509 bytes   01:21:06.611
14              1:32:05.978     0:07:20.106     33 506 kbps     39 453 kbps     01:33:21.637    38 013 kbps     01:33:17.633    37 778 kbps     01:33:19.510    174 687 bytes   326 577 bytes   01:35:27.596
15              1:39:26.085     0:08:22.585     34 263 kbps     41 213 kbps     01:45:31.408    38 052 kbps     01:42:41.697    37 897 kbps     01:41:35.214    178 630 bytes   522 982 bytes   01:43:56.688
16              1:47:48.670     0:08:13.951     34 372 kbps     41 578 kbps     01:47:48.712    37 944 kbps     01:55:38.598    37 820 kbps     01:54:44.711    179 202 bytes   635 228 bytes   01:47:51.381
17              1:56:02.622     0:06:52.286     33 363 kbps     41 907 kbps     02:00:46.989    38 586 kbps     02:00:42.985    38 190 kbps     02:00:37.980    173 938 bytes   639 691 bytes   02:00:15.583
18              2:02:54.909     0:05:20.820     22 977 kbps     43 390 kbps     02:08:12.434    38 767 kbps     02:08:08.430    31 047 kbps     02:08:03.509    119 807 bytes   608 288 bytes   02:08:00.214
STREAM DIAGNOSTICS:
File            PID             Type            Codec           Language                Seconds                 Bitrate                 Bytes           Packets
----            ---             ----            -----           --------                --------------          --------------          -------------   -----
00919.M2TS      4113 (0x1011)   0x1B            AVC                                     80,163                  37 173                  372 485 982     2 025 385
00919.M2TS      4352 (0x1100)   0x86            DTS-HD MA       eng (English)           80,163                  3 171                   31 777 624      183 439
00919.M2TS      4353 (0x1101)   0x81            AC3             eng (English)           80,163                  321                     3 212 800       20 080
00919.M2TS      4354 (0x1102)   0x81            AC3             rus (Russian)           80,163                  641                     6 425 600       37 650
00919.M2TS      4608 (0x1200)   0x90            PGS             eng (English)           80,163                  0                       70              7
00919.M2TS      4609 (0x1201)   0x90            PGS             eng (English)           80,163                  0                       70              7
00919.M2TS      4610 (0x1202)   0x90            PGS             rus (Russian)           80,163                  0                       70              7
00919.M2TS      4611 (0x1203)   0x90            PGS             eng (English)           80,163                  0                       70              7
00919.M2TS      4612 (0x1204)   0x90            PGS             rus (Russian)           80,163                  0                       70              7
00930.M2TS      4113 (0x1011)   0x1B            AVC                                     4,880                   35 147                  21 438 915      116 582
00930.M2TS      4352 (0x1100)   0x86            DTS-HD MA       eng (English)           4,880                   4 550                   2 775 408       15 910
00930.M2TS      4353 (0x1101)   0x81            AC3             eng (English)           4,880                   332                     202 240         1 264
00930.M2TS      4354 (0x1102)   0x81            AC3             rus (Russian)           4,880                   663                     404 480         2 370
00930.M2TS      4608 (0x1200)   0x90            PGS             eng (English)           4,880                   0                       70              7
00930.M2TS      4609 (0x1201)   0x90            PGS             eng (English)           4,880                   0                       70              7
00930.M2TS      4610 (0x1202)   0x90            PGS             rus (Russian)           4,880                   18                      10 756          66
00930.M2TS      4611 (0x1203)   0x90            PGS             eng (English)           4,880                   0                       70              7
00930.M2TS      4612 (0x1204)   0x90            PGS             rus (Russian)           4,880                   0                       70              7
00931.M2TS      4113 (0x1011)   0x1B            AVC                                     7610,228                33 512                  31 879 646 884  173 364 978
00931.M2TS      4352 (0x1100)   0x86            DTS-HD MA       eng (English)           7610,228                3 459                   3 290 629 932   19 071 662
00931.M2TS      4353 (0x1101)   0x81            AC3             eng (English)           7610,228                320                     304 416 000     1 902 600
00931.M2TS      4354 (0x1102)   0x81            AC3             rus (Russian)           7610,228                640                     608 832 000     3 567 375
00931.M2TS      4608 (0x1200)   0x90            PGS             eng (English)           7610,228                49                      46 974 730      270 657
00931.M2TS      4609 (0x1201)   0x90            PGS             eng (English)           7610,228                43                      41 075 663      234 970
00931.M2TS      4610 (0x1202)   0x90            PGS             rus (Russian)           7610,228                45                      42 758 909      244 926
00931.M2TS      4611 (0x1203)   0x90            PGS             eng (English)           7610,228                0                       431 806         2 514
00931.M2TS      4612 (0x1204)   0x90            PGS             rus (Russian)           7610,228                2                       2 215 603       12 740
<---- END FORUMS PASTE ---->
QUICK SUMMARY:
Disc Title: The Fifth Estate
Disc Size: 43 893 965 876 bytes
Protection: AACS
BD-Java: Yes
Playlist: 00800.MPLS
Size: 38 655 952 896 bytes
Length: 2:08:15.729
Total Bitrate: 40,18 Mbps
Video: MPEG-4 AVC Video / 33550 kbps / 1080p / 23,976 fps / 16:9 / High Profile 4.1
Audio: English / DTS-HD Master Audio / 5.1 / 48 kHz / 3457 kbps / 24-bit (DTS Core: 5.1 / 48 kHz / 1509 kbps / 24-bit)
Audio: English / Dolby Digital Audio / 2.0 / 48 kHz / 320 kbps / Dolby Surround
Audio: Russian / Dolby Digital Audio / 5.1 / 48 kHz / 640 kbps
Subtitle: English / 48,832 kbps
Subtitle: English / 42,700 kbps
Subtitle: Russian / 44,461 kbps
Subtitle: English / 0,449 kbps
Subtitle: Russian / 2,303 kbps
********************
PLAYLIST: 00818.MPLS
********************
<--- BEGIN FORUMS PASTE --->
Код:
Total   Video
Title                                                           Codec   Length  Movie Size      Disc Size       Bitrate Bitrate Main Audio Track                          Secondary Audio Track
-----                                                           ------  ------- --------------  --------------  ------- ------- ------------------                        ---------------------
00818.MPLS                                                      AVC     2:06:50 38 194 053 120  43 893 965 876  40,15   33,51   DTS-HD Master 5.1 3459Kbps (48kHz/24-bit)
Код:
DISC INFO:
Disc Title:     The Fifth Estate
Disc Size:      43 893 965 876 bytes
Protection:     AACS
BD-Java:        Yes
BDInfo:         0.5.8
PLAYLIST REPORT:
Name:                   00818.MPLS
Length:                 2:06:50.394 (h:m:s.ms)
Size:                   38 194 053 120 bytes
Total Bitrate:          40,15 Mbps
VIDEO:
Codec                   Bitrate             Description
-----                   -------             -----------
MPEG-4 AVC Video        33512 kbps          1080p / 23,976 fps / 16:9 / High Profile 4.1
AUDIO:
Codec                           Language        Bitrate         Description
-----                           --------        -------         -----------
DTS-HD Master Audio             English         3459 kbps       5.1 / 48 kHz / 3459 kbps / 24-bit (DTS Core: 5.1 / 48 kHz / 1509 kbps / 24-bit)
Dolby Digital Audio             English         320 kbps        2.0 / 48 kHz / 320 kbps / Dolby Surround
Dolby Digital Audio             Russian         640 kbps        5.1 / 48 kHz / 640 kbps
SUBTITLES:
Codec                           Language        Bitrate         Description
-----                           --------        -------         -----------
Presentation Graphics           English         49,380 kbps
Presentation Graphics           English         43,178 kbps
Presentation Graphics           Russian         44,948 kbps
Presentation Graphics           English         0,454 kbps
Presentation Graphics           Russian         2,329 kbps
FILES:
Name            Time In         Length          Size            Total Bitrate
----            -------         ------          ----            -------------
00931.M2TS      0:00:00.000     2:06:50.394     38 194 053 120  40 149
CHAPTERS:
Number          Time In         Length          Avg Video Rate  Max 1-Sec Rate  Max 1-Sec Time  Max 5-Sec Rate  Max 5-Sec Time  Max 10Sec Rate  Max 10Sec Time  Avg Frame Size  Max Frame Size  Max Frame Time
------          -------         ------          --------------  --------------  --------------  --------------  --------------  --------------  --------------  --------------  --------------  --------------
1               0:00:00.000     2:06:50.394     33 512 kbps     45 717 kbps     00:15:29.136    39 061 kbps     00:19:44.808    38 343 kbps     00:19:39.720    174 715 bytes   639 691 bytes   01:58:50.248
STREAM DIAGNOSTICS:
File            PID             Type            Codec           Language                Seconds                 Bitrate                 Bytes           Packets
----            ---             ----            -----           --------                --------------          --------------          -------------   -----
00931.M2TS      4113 (0x1011)   0x1B            AVC                                     7610,228                33 512                  31 879 646 884  173 364 978
00931.M2TS      4352 (0x1100)   0x86            DTS-HD MA       eng (English)           7610,228                3 459                   3 290 629 932   19 071 662
00931.M2TS      4353 (0x1101)   0x81            AC3             eng (English)           7610,228                320                     304 416 000     1 902 600
00931.M2TS      4354 (0x1102)   0x81            AC3             rus (Russian)           7610,228                640                     608 832 000     3 567 375
00931.M2TS      4608 (0x1200)   0x90            PGS             eng (English)           7610,228                49                      46 974 730      270 657
00931.M2TS      4609 (0x1201)   0x90            PGS             eng (English)           7610,228                43                      41 075 663      234 970
00931.M2TS      4610 (0x1202)   0x90            PGS             rus (Russian)           7610,228                45                      42 758 909      244 926
00931.M2TS      4611 (0x1203)   0x90            PGS             eng (English)           7610,228                0                       431 806         2 514
00931.M2TS      4612 (0x1204)   0x90            PGS             rus (Russian)           7610,228                2                       2 215 603       12 740
<---- END FORUMS PASTE ---->
QUICK SUMMARY:
Disc Title: The Fifth Estate
Disc Size: 43 893 965 876 bytes
Protection: AACS
BD-Java: Yes
Playlist: 00818.MPLS
Size: 38 194 053 120 bytes
Length: 2:06:50.394
Total Bitrate: 40,15 Mbps
Video: MPEG-4 AVC Video / 33512 kbps / 1080p / 23,976 fps / 16:9 / High Profile 4.1
Audio: English / DTS-HD Master Audio / 5.1 / 48 kHz / 3459 kbps / 24-bit (DTS Core: 5.1 / 48 kHz / 1509 kbps / 24-bit)
Audio: English / Dolby Digital Audio / 2.0 / 48 kHz / 320 kbps / Dolby Surround
Audio: Russian / Dolby Digital Audio / 5.1 / 48 kHz / 640 kbps
Subtitle: English / 49,380 kbps
Subtitle: English / 43,178 kbps
Subtitle: Russian / 44,948 kbps
Subtitle: English / 0,454 kbps
Subtitle: Russian / 2,329 kbps

Скриншоты меню

Скриншоты


_________________
Показать сообщения:    

Текущее время: Сегодня 11:21

Часовой пояс: GMT



Вы не можете начинать темы
Вы не можете отвечать на сообщения
Вы не можете редактировать свои сообщения
Вы не можете удалять свои сообщения
Вы не можете голосовать в опросах
Вы не можете прикреплять файлы к сообщениям
Вы не можете скачивать файлы