Важное объявление!
У Нас Все раздачи мультитрекерные, при нуле пиров в релизах, можете смело вставать на закачку!
 
Автор Сообщение

HUNTER

Стаж:
4 года 4 месяца
Сообщений:
56734

Репутация: 101

[+] [-]
Вне форума [Профиль] [ЛС]

Пятая власть / The Fifth Estate

-
-Страна: Великобритания, Бельгия
Студия: DreamWorks SKG, Participant Media
Жанр: триллер, драма, биография
Год выпуска: 2013
Продолжительность: 02:08:16--Перевод 1: Профессиональный (дублированный) Blu-ray
Перевод 2: Одноголосый закадровый Алексей "Doctor_Joker" Матвеев по переводу Li.Reverie
Cубтитры: русские (forced, full, Li.Reverie), английские (forced, full, SDH)
Оригинальная аудиодорожка: английский--Режиссер: Билл Кондон / Bill Condon
В ролях: Бенедикт Камбербэтч, Даниэль Брюль, Энтони Маки, Дэвид Тьюлис, Алисия Викандер, Стэнли Туччи, Лора Линни, Питер Капальди, Анатоль Таубман, Александр Байер.--Описание: В мире, где информация ценится превыше всего, а утечка сведений под грифом «секретно» может вызвать необратимые последствия, сайт WikiLeaks навсегда поменял правила игры. Фильм, основанный на реальных событиях, рассказывает о попытке разоблачить государственную коррупцию и ложь властей, которая превратила интернет-стартап в одну из самых известных и обсуждаемых организаций 21-го века. За первые годы существования WIKILEAKS обнародовал больше тайн, чем самые влиятельные в мире СМИ вместе взятые, раскрывая постыдные секреты государственных служб и финансовые преступления корпораций. Но когда основатели сайта получили доступ к крупнейшему засекреченному архиву США, им предстояло найти для себя ответ на один из важнейших вопросов современности: какова цена тайны в свободном обществе — и какова цена ее разглашения?--imdb | kinopoisk | Сэмпл--Тип релиза: BDRemux 1080p [Пятая власть / The Fifth Estate (2013) Blu-ray Disc [EUR] -BLUEBIRD]
Контейнер: MKV
Видео: MPEG-4 AVC / 33550 kbps / 1920x1080 / 23,976 fps / 16:9 / High Profile 4.1
Аудио 1: Russian AC3 / 5.1 / 48 kHz / 640 kbps / 16 bits |Dub, Blu-ray|
Аудио 2: Russian DTS-HD Master Audio / 5.1 / 48 kHz / 3490 kbps / 24 bits (DTS Core: 5.1 / 48 kHz / 1509 kbps / 24 bits) |Doctor_Joker|
Аудио 3: English DTS-HD Master Audio / 5.1 / 48 kHz / 3457 kbps / 24 bits (DTS Core: 5.1 / 48 kHz / 1509 kbps / 24 bits) |original|
Аудио 4: English AC3 / 2.0 / 48 kHz / 320 kbps / 16 bits |Descriptive|
Формат субтитров: softsub [SRT]

MediaInfo

Код:
Общее
Уникальный идентификатор                 : 234110284431216507554540602464970138538 (0xB020002E5E0935798CA864917686E3AA)
Полное имя                               : G:\HD\Пятая власть.2013.Blu-Ray.Remux.(1080p).mkv
Формат                                   : Matroska
Версия формата                           : Version 4 / Version 2
Размер файла                             : 36,9 Гбайт
Продолжительность                        : 2 ч. 8 м.
Режим общего битрейта                    : Переменный
Общий поток                              : 41,2 Мбит/сек
Дата кодирования                         : UTC 2014-03-17 16:47:45
Программа кодирования                    : mkvmerge v6.8.0 ('Theme for Great Cities') 64bit built on Mar  2 2014 21:34:26
Библиотека кодирования                   : libebml v1.3.0 + libmatroska v1.4.1
Attachment                               : Yes
Видео
Идентификатор                            : 1
Формат                                   : AVC
Формат/Информация                        : Advanced Video Codec
Профиль формата                          : High@L4.1
Параметр CABAC формата                   : Да
Параметр ReFrames формата                : 4 кадра
Идентификатор кодека                     : V_MPEG4/ISO/AVC
Продолжительность                        : 2 ч. 8 м.
Вид битрейта                             : Переменный
Максимальный битрейт                     : 38,0 Мбит/сек
Ширина                                   : 1920 пикселей
Высота                                   : 1080 пикселей
Соотношение сторон                       : 16:9
Режим частоты кадров                     : Постоянный
Частота кадров                           : 23,976 кадра/сек
Цветовое пространство                    : YUV
Субдискретизация насыщенности            : 4:2:0
Битовая глубина                          : 8 бит
Тип развёртки                            : Прогрессивная
Default                                  : Да
Forced                                   : Нет
Аудио #1
Идентификатор                            : 2
Формат                                   : AC-3
Формат/Информация                        : Audio Coding 3
Расширение режима                        : CM (complete main)
Параметр Endianness формата              : Big
Идентификатор кодека                     : A_AC3
Продолжительность                        : 2 ч. 8 м.
Вид битрейта                             : Постоянный
Битрейт                                  : 640 Кбит/сек
Каналы                                   : 6 каналов
Расположение каналов                     : Front: L C R, Side: L R, LFE
Частота                                  : 48,0 КГц
Битовая глубина                          : 16 бит
Метод сжатия                             : С потерями
Размер потока                            : 587 Мбайт (2%)
Заголовок                                : Dub, Blu-ray
Язык                                     : Russian
Default                                  : Да
Forced                                   : Нет
Аудио #2
Идентификатор                            : 3
Формат                                   : DTS
Формат/Информация                        : Digital Theater Systems
Профиль формата                          : MA / Core
Режим                                    : 16
Параметр Endianness формата              : Big
Идентификатор кодека                     : A_DTS
Продолжительность                        : 2 ч. 8 м.
Вид битрейта                             : Переменный
Битрейт                                  : Неизвестно / 1509 Кбит/сек
Каналы                                   : 6 каналов
Расположение каналов                     : Front: L C R, Side: L R, LFE
Частота                                  : 48,0 КГц
Битовая глубина                          : 24 бит
Метод сжатия                             : Без потерь / Lossy
Заголовок                                : Doctor_Joker
Язык                                     : Russian
Default                                  : Нет
Forced                                   : Нет
Аудио #3
Идентификатор                            : 4
Формат                                   : DTS
Формат/Информация                        : Digital Theater Systems
Профиль формата                          : MA / Core
Режим                                    : 16
Параметр Endianness формата              : Big
Идентификатор кодека                     : A_DTS
Продолжительность                        : 2 ч. 8 м.
Вид битрейта                             : Переменный
Битрейт                                  : Неизвестно / 1509 Кбит/сек
Каналы                                   : 6 каналов
Расположение каналов                     : Front: L C R, Side: L R, LFE
Частота                                  : 48,0 КГц
Битовая глубина                          : 24 бит
Метод сжатия                             : Без потерь / Lossy
Язык                                     : English
Default                                  : Нет
Forced                                   : Нет
Аудио #4
Идентификатор                            : 5
Формат                                   : AC-3
Формат/Информация                        : Audio Coding 3
Профиль формата                          : Dolby Digital
Расширение режима                        : CM (complete main)
Параметр Endianness формата              : Big
Идентификатор кодека                     : A_AC3
Продолжительность                        : 2 ч. 8 м.
Вид битрейта                             : Постоянный
Битрейт                                  : 320 Кбит/сек
Каналы                                   : 2 канала
Расположение каналов                     : Front: L R
Частота                                  : 48,0 КГц
Битовая глубина                          : 16 бит
Метод сжатия                             : С потерями
Размер потока                            : 294 Мбайт (1%)
Заголовок                                : Descriptive
Язык                                     : English
Default                                  : Нет
Forced                                   : Нет
Текст #1
Идентификатор                            : 6
Формат                                   : UTF-8
Идентификатор кодека                     : S_TEXT/UTF8
Идентификатор кодека/Информация          : UTF-8 Plain Text
Заголовок                                : forced
Язык                                     : Russian
Default                                  : Да
Forced                                   : Нет
Текст #2
Идентификатор                            : 7
Формат                                   : UTF-8
Идентификатор кодека                     : S_TEXT/UTF8
Идентификатор кодека/Информация          : UTF-8 Plain Text
Заголовок                                : full
Язык                                     : Russian
Default                                  : Нет
Forced                                   : Нет
Текст #3
Идентификатор                            : 8
Формат                                   : UTF-8
Идентификатор кодека                     : S_TEXT/UTF8
Идентификатор кодека/Информация          : UTF-8 Plain Text
Заголовок                                : Li.Reverie
Язык                                     : Russian
Default                                  : Нет
Forced                                   : Нет
Текст #4
Идентификатор                            : 9
Формат                                   : UTF-8
Идентификатор кодека                     : S_TEXT/UTF8
Идентификатор кодека/Информация          : UTF-8 Plain Text
Заголовок                                : forced
Язык                                     : English
Default                                  : Нет
Forced                                   : Нет
Текст #5
Идентификатор                            : 10
Формат                                   : UTF-8
Идентификатор кодека                     : S_TEXT/UTF8
Идентификатор кодека/Информация          : UTF-8 Plain Text
Заголовок                                : full
Язык                                     : English
Default                                  : Нет
Forced                                   : Нет
Текст #6
Идентификатор                            : 11
Формат                                   : UTF-8
Идентификатор кодека                     : S_TEXT/UTF8
Идентификатор кодека/Информация          : UTF-8 Plain Text
Заголовок                                : SDH
Язык                                     : English
Default                                  : Нет
Forced                                   : Нет
Меню
00:00:00.000                             : :Вступительные титры
00:05:53.144                             : :Один нравственный человек, разоблачитель
00:12:18.446                             : :Мне можно доверять
00:19:35.007                             : :Первое задание
00:26:17.993                             : :Всего двое
00:34:17.472                             : :Вуаль секретности
00:40:31.720                             : :Ты будешь как он
00:46:53.852                             : :Настоящая преданность
00:54:58.336                             : :На одном месте
01:01:29.852                             : :Псевдоним
01:06:38.119                             : :Агенты
01:14:39.266                             : :"Сопутствующее убийство"
01:20:30.951                             : :Самая крупная утечка информации в истории
01:32:05.978                             : :Опубликуем всё целиком
01:39:26.085                             : :Их руки в крови
01:47:48.670                             : :Уничтожение платформы
01:56:02.622                             : :Пятая власть
02:02:54.909                             : :Финальные титры

Скриншоты


Дополнительно

Цитата:

Дорожка №2 получена наложением чистого голоса на центр декодированного DTS-HD MA.
Дорожка №2: Перевод Li.Reverie, озвучка и редактура текста Doctor Joker, заказчик будулайроманов, работа со звуком Переводман.

_________________
Показать сообщения:    

Текущее время: Сегодня 16:54

Часовой пояс: GMT



Вы не можете начинать темы
Вы не можете отвечать на сообщения
Вы не можете редактировать свои сообщения
Вы не можете удалять свои сообщения
Вы не можете голосовать в опросах
Вы не можете прикреплять файлы к сообщениям
Вы не можете скачивать файлы