Важное объявление!
У Нас Все раздачи мультитрекерные, при нуле пиров в релизах, можете смело вставать на закачку!
 
Автор Сообщение

HUNTER

Стаж:
4 года 4 месяца
Сообщений:
56719

Репутация: 101

[+] [-]
Вне форума [Профиль] [ЛС]

Пчёлка Майя / Maya The Bee – Movie«Невероятно сладкая история»-
Страна: Австралия, Германия | Buzz Studios
Жанр: фэнтези, приключения
Продолжительность: 01:28:10
Год выпуска: 2014
Перевод: Профессиональный (полное дублирование) iTunes
Русские субтитры: нет
Режиссёр: Алекс Стадерманн / Alexs Stadermann
Роли озвучивали: Нина Шаттон, Коди Смит-МакФи, Ноа Тейлор, Джеки Уивер, Ричард Роксбург, Мириам Маргулис, Джастин Кларк, Энди МакФи, Косма Шива Хаген, Коко Джек Гиллис-ОписаниеЛегендарная пчелка доросла до большого экрана. Любопытная Пчелка Майя всегда в поисках приключений и с готовностью перевернет все в улье с ног на голову, чем нередко выводит из себя наставницу госпожу Кассандру. Впрочем, в улье случилось гораздо более глобальное несчастье — похищен королевский нектар, эликсир жизни пчелиной Королевы! Советница монарха Жужжала обвиняет во всем ос и выставляет Майю их сообщницей. Вместе со своим лучшим другом Уилли отважная пчелка вынуждена отправиться в полное опасностей путешествие, чтобы разыскать украденную ценность и спасти жизнь своей Королеве.-Сэмпл

IMDb: 6.20 (183)
Качество: BDRip-AVC Maya.the.Bee.Movie.2014.1080p.2D+3D.ESP.Blu-ray.AVC.DTS-HD.MA.5.1-ReHD
Формат: MKV
Видео: AVC 3423 Kbps 1280 x 694 (1.844) 23.976 fps
Аудио: AC-3 384 Kbps 6 channels, 48.0 KHz DUB iTunes
Субтитры: Нет

MI | Log

Log
x264 [info]: frame I:1282 Avg QP:12.86 size: 94898
x264 [info]: frame P:32920 Avg QP:14.48 size: 34439
x264 [info]: frame B:92643 Avg QP:17.73 size: 11420
x264 [info]: consecutive B-frames: 5.0% 5.2% 15.1% 20.5% 12.2% 36.9% 2.7% 0.5% 0.7% 0.3% 0.2% 0.3% 0.4%
x264 [info]: mb I I16..4: 12.2% 65.3% 22.5%
x264 [info]: mb P I16..4: 3.0% 15.3% 3.3% P16..4: 26.8% 30.1% 10.3% 1.7% 0.3% skip: 9.2%
x264 [info]: mb B I16..4: 0.6% 2.1% 0.4% B16..8: 31.5% 20.1% 3.2% direct: 3.9% skip:38.3% L0:42.4% L1:45.9% BI:11.7%
x264 [info]: 8x8 transform intra:70.1% inter:57.4%
x264 [info]: direct mvs spatial:100.0% temporal:0.0%
x264 [info]: coded y,uvDC,uvAC intra: 71.4% 87.1% 74.4% inter: 13.7% 17.1% 6.5%
x264 [info]: i16 v,h,dc,p: 32% 11% 5% 52%
x264 [info]: i8 v,h,dc,ddl,ddr,vr,hd,vl,hu: 12% 10% 11% 9% 11% 11% 11% 12% 13%
x264 [info]: i4 v,h,dc,ddl,ddr,vr,hd,vl,hu: 15% 11% 12% 7% 14% 12% 11% 9% 9%
x264 [info]: i8c dc,h,v,p: 37% 24% 19% 20%
x264 [info]: Weighted P-Frames: Y:1.8% UV:1.5%
x264 [info]: ref P L0: 54.3% 6.5% 17.8% 6.3% 4.6% 3.5% 2.9% 1.9% 1.7% 0.5% 0.0%
x264 [info]: ref B L0: 77.8% 11.7% 4.7% 2.1% 1.5% 1.1% 0.7% 0.3%
x264 [info]: ref B L1: 92.9% 7.1%
x264 [info]: kb/s:3498.12
x264 [total]: encoded 126845 frames, 7.83 fps, 3498.12 kb/s, duration 4:29:54.66
Format                                   : MatroskaFormat version                           : Version 4 / Version 2File size                                : 2.39 GiBDuration                                 : 1h 28mnOverall bit rate                         : 3 884 KbpsEncoded date                             : UTC 2015-01-26 19:58:13Writing application                      : mkvmerge v6.7.0 ('Back to the Ground') 32bit built on Jan  8 2014 15:03:17Writing library                          : libebml v1.3.0 + libmatroska v1.4.1
VideoID : 1Format : AVCFormat/Info : Advanced Video CodecFormat profile : High@L4.1Format settings, CABAC : YesFormat settings, ReFrames : 9 framesCodec ID : V_MPEG4/ISO/AVCDuration : 1h 28mnBit rate : 3 423 KbpsWidth : 1 280 pixelsHeight : 694 pixelsDisplay aspect ratio : 1.85:1Frame rate mode : ConstantFrame rate : 23.976 fpsColor space : YUVChroma subsampling : 4:2:0Bit depth : 8 bitsScan type : ProgressiveBits/(Pixel*Frame) : 0.161Stream size : 2.11 GiB (88%)Title : Maya The Bee - Movie [rutracker.org] 720pWriting library : x264 core 144 r2525kMod 40bb568Encoding settings : cabac=1 / ref=9 / deblock=1:-2:-2 / analyse=0x3:0x133 / me=umh / subme=11 / psy=1 / fade_compensate=0.00 / psy_rd=1.00:0.05 / mixed_ref=1 / me_range=32 / chroma_me=1 / trellis=2 / 8x8dct=1 / cqm=0 / deadzone=21,11 / fast_pskip=0 / chroma_qp_offset=-3 / threads=12 / lookahead_threads=3 / sliced_threads=0 / nr=0 / decimate=1 / interlaced=0 / bluray_compat=0 / constrained_intra=0 / fgo=0 / bframes=12 / b_pyramid=2 / b_adapt=2 / b_bias=0 / direct=3 / weightb=1 / open_gop=0 / weightp=2 / keyint=250 / keyint_min=23 / scenecut=40 / intra_refresh=0 / rc_lookahead=70 / rc=crf / mbtree=0 / crf=17.0000 / qcomp=0.60 / qpmin=0 / qpmax=69 / qpstep=4 / vbv_maxrate=50000 / vbv_bufsize=62500 / crf_max=0.0 / nal_hrd=none / filler=0 / ip_ratio=1.40 / pb_ratio=1.30 / aq=3:0.90Language : EnglishDefault : YesForced : No
AudioID : 2Format : AC-3Format/Info : Audio Coding 3Mode extension : CM (complete main)Format settings, Endianness : BigCodec ID : A_AC3Duration : 1h 28mnBit rate mode : ConstantBit rate : 384 KbpsChannel(s) : 6 channelsChannel positions : Front: L C R, Side: L R, LFESampling rate : 48.0 KHzBit depth : 16 bitsCompression mode : LossyStream size : 242 MiB (10%)Title : Dub [iTunes]Language : RussianDefault : YesForced : No
Menu00:00:00.000 : en:00:00:00.00000:00:26.318 : en:00:00:26.31800:08:05.985 : en:00:08:05.98500:13:21.259 : en:00:13:21.25900:15:55.872 : en:00:15:55.87200:23:21.483 : en:00:23:21.48300:27:33.944 : en:00:27:33.94400:36:37.362 : en:00:36:37.36200:39:46.676 : en:00:39:46.67600:49:49.320 : en:00:49:49.32001:00:39.761 : en:01:00:39.76101:09:23.618 : en:01:09:23.61801:16:40.596 : en:01:16:40.596

Скриншоты | Rip vs Source





Source

_________________
Показать сообщения:    

Текущее время: Сегодня 03:53

Часовой пояс: GMT



Вы не можете начинать темы
Вы не можете отвечать на сообщения
Вы не можете редактировать свои сообщения
Вы не можете удалять свои сообщения
Вы не можете голосовать в опросах
Вы не можете прикреплять файлы к сообщениям
Вы не можете скачивать файлы