Важное объявление!
У Нас Все раздачи мультитрекерные, при нуле пиров в релизах, можете смело вставать на закачку!
 
Автор Сообщение

HUNTER

Стаж:
4 года 4 месяца
Сообщений:
56765

Репутация: 101

[+] [-]
Вне форума [Профиль] [ЛС]

Пушки, телки и азарт / Guns, Girls and Gambling-
Страна: США
Жанр: триллер, криминал, комедия
Год выпуска: 2011
Продолжительность: 01:29:16
Перевод 1: Профессиональный (дублированный)
Перевод 2: Одноголосый закадровый
Cубтитры: нет
Оригинальная аудиодорожка: английский-Режиссер: Майкл Уинник / Michael Winnick
В ролях: Кристиан Слэйтер, Меган Парк, Хелена Мэттссон, Пауэрс Бут, Гордон Тутусис, Гари Олдман, Мэттью Уиллиг, Дейн Кук, Сэм Трэммелл, Джефф Фэйи-Описание: Джону Смиту не очень-то везло в последнее время, но он верил в народную мудрость, что жизнь — это тельняшка, и за черной полосой обязательно последует белая. Однако на этот раз мудрость не сработала. Джон Смит оказался в плохое время в плохом месте. Из казино, где он пытался поправить свое финансовое положение, во время игры в покер украли бесценный индейский артефакт. Как гласит предание, эта священная маска легендарного воина племени сиу способна подарить своему обладателю удачу и бессмертие. Охотников за счастьем подсобралось немало, и все они стопроцентно уверены, что вор — Джон Смит. Разношерстная компания — двойники Элвиса Пресли, индейцы, ковбои, блондинка-киллерша, коррумпированные полицейские, проститутка и даже злобный карлик — бросается за ним в погоню…
-
-Доп. информация: Рип сделан с немецкого издания. В отличии от раздачи 720p, в данном рипе надписи на немецком.
За исходник спасибо arxivariys
-Качество видео: BDRip 1080p
Контейнер: MKV
Видео: x.264, 1920х1080, 10146 Kbps, 23.976 fps
Аудио 1: AC3, 48000 Hz, 384 kbps, 5.1 channels - Dub
Аудио 2: AC3, 48000 Hz, 384 kbps, 5.1 channels - VO
Аудио 3: DTS, 48000 Hz, 1510 kbps, 5.1 channels - Eng
-

Отчёт MediaInfo / log

Код:
Format                           : Matroska
Format version                   : Version 4 / Version 2
File size                        : 7.75 GiB
Duration                         : 1h 29mn
Overall bit rate                 : 12.4 Mbps
Movie name                       : Пушки, телки и азарт / Guns, Girls and Gambling (2011) BDRip 1080p
Encoded date                     : UTC 2013-12-20 18:10:09
Writing application              : mkvmerge v6.5.0 ('Isn't she lovely') built on Oct 20 2013 12:50:05
Writing library                  : libebml v1.3.0 + libmatroska v1.4.1
Attachment                       : Yes
Video
ID                               : 1
Format                           : AVC
Format/Info                      : Advanced Video Codec
Format profile                   : High@L4.1
Format settings, CABAC           : Yes
Format settings, ReFrames        : 4 frames
Codec ID                         : V_MPEG4/ISO/AVC
Duration                         : 1h 29mn
Bit rate                         : 10.2 Mbps
Width                            : 1 920 pixels
Height                           : 1 080 pixels
Display aspect ratio             : 16:9
Frame rate                       : 23.976 fps
Color space                      : YUV
Chroma subsampling               : 4:2:0
Bit depth                        : 8 bits
Scan type                        : Progressive
Bits/(Pixel*Frame)               : 0.204
Stream size                      : 6.17 GiB (80%)
Writing library                  : x264 core 140 r2377 1ca7bb9
Encoding settings                : cabac=1 / ref=4 / deblock=1:-3:-3 / analyse=0x3:0x113 / me=umh / subme=10 / psy=1 / psy_rd=1.05:0.10 / mixed_ref=1 / me_range=32 / chroma_me=1 / trellis=2 / 8x8dct=1 / cqm=0 / deadzone=21,11 / fast_pskip=0 / chroma_qp_offset=-3 / threads=6 / lookahead_threads=1 / sliced_threads=0 / nr=0 / decimate=1 / interlaced=0 / bluray_compat=0 / constrained_intra=0 / bframes=8 / b_pyramid=2 / b_adapt=2 / b_bias=0 / direct=1 / weightb=1 / open_gop=0 / weightp=2 / keyint=240 / keyint_min=23 / scenecut=40 / intra_refresh=0 / rc_lookahead=60 / rc=2pass / mbtree=0 / bitrate=10163 / ratetol=1.0 / qcomp=0.60 / qpmin=0 / qpmax=69 / qpstep=4 / cplxblur=20.0 / qblur=0.5 / vbv_maxrate=50000 / vbv_bufsize=62500 / nal_hrd=none / filler=0 / ip_ratio=1.30 / pb_ratio=1.30 / aq=1:1.00
Language                         : English
Default                          : Yes
Forced                           : No
Color primaries                  : BT.709-5, BT.1361, IEC 61966-2-4, SMPTE RP177
Transfer characteristics         : BT.709-5, BT.1361
Matrix coefficients              : BT.709-5, BT.1361, IEC 61966-2-4 709, SMPTE RP177
Audio #1
ID                               : 2
Format                           : AC-3
Format/Info                      : Audio Coding 3
Mode extension                   : CM (complete main)
Codec ID                         : A_AC3
Duration                         : 1h 29mn
Bit rate mode                    : Constant
Bit rate                         : 384 Kbps
Channel(s)                       : 6 channels
Channel positions                : Front: L C R, Side: L R, LFE
Sampling rate                    : 48.0 KHz
Bit depth                        : 16 bits
Compression mode                 : Lossy
Stream size                      : 246 MiB (3%)
Title                            : DUB
Language                         : Russian
Default                          : Yes
Forced                           : No
Audio #2
ID                               : 3
Format                           : AC-3
Format/Info                      : Audio Coding 3
Mode extension                   : CM (complete main)
Codec ID                         : A_AC3
Duration                         : 1h 29mn
Bit rate mode                    : Constant
Bit rate                         : 384 Kbps
Channel(s)                       : 6 channels
Channel positions                : Front: L C R, Side: L R, LFE
Sampling rate                    : 44.1 KHz
Bit depth                        : 16 bits
Compression mode                 : Lossy
Stream size                      : 246 MiB (3%)
Title                            : VO
Language                         : Russian
Default                          : No
Forced                           : No
Audio #3
ID                               : 4
Format                           : DTS
Format/Info                      : Digital Theater Systems
Codec ID                         : A_DTS
Duration                         : 1h 29mn
Bit rate mode                    : Constant
Bit rate                         : 1 510 Kbps
Channel(s)                       : 6 channels
Channel positions                : Front: L C R, Side: L R, LFE
Sampling rate                    : 48.0 KHz
Bit depth                        : 16 bits
Compression mode                 : Lossy
Stream size                      : 966 MiB (12%)
Title                            : Original
Language                         : English
Default                          : No
Forced                           : No
Menu
00:00:00.000                     : Start
00:09:57.597                     : Poker
00:19:16.947                     : Stranded
00:24:10.240                     : Elvis' House
00:31:48.406                     : Little Elvis
00:35:04.602                     : Door 1825 1/2
00:45:43.407                     : The Mask
00:51:38.970                     : John Smith
00:57:00.750                     : The Plan
01:07:09.984                     : Station 12
01:17:53.502                     : What Happened
01:25:14.859                     : Credits
==========================================================
x264 [info]: frame I:1392  Avg QP:15.18  size:252519
x264 [info]: frame P:32076 Avg QP:16.98  size: 98576
x264 [info]: frame B:94957 Avg QP:18.87  size: 34545
x264 [info]: consecutive B-frames:  5.8%  3.8% 16.1%  6.2%  5.4% 60.0%  0.8%  0.5%  1.3%

-

Скриншоты


Резервные скриншоты



_________________
Показать сообщения:    

Текущее время: Сегодня 21:24

Часовой пояс: GMT



Вы не можете начинать темы
Вы не можете отвечать на сообщения
Вы не можете редактировать свои сообщения
Вы не можете удалять свои сообщения
Вы не можете голосовать в опросах
Вы не можете прикреплять файлы к сообщениям
Вы не можете скачивать файлы