Важное объявление!
У Нас Все раздачи мультитрекерные, при нуле пиров в релизах, можете смело вставать на закачку!
 
Автор Сообщение

HUNTER

Стаж:
4 года 4 месяца
Сообщений:
56772

Репутация: 101

[+] [-]
Вне форума [Профиль] [ЛС]

Пушка Нобунаги / Nobunagun
Страна: Япония
Год выпуска: 2014 г.
Жанр: Приключения, меха
Тип: TV
Продолжительность: 13 эп, ~ 25 мин.
Режиссер: Кондо Нобухиро
Студия:
Описание: Жуткие космические монстры уничтожили немало миров и нацелились на матушку-Землю. В ответ неведомые благие силы нашли возможность воскресить способности выдающихся людей прошлого и призвать их на помощь в трудный час. Процесс этот спонтанный, всех выявленных носителей Е-генов находит тайная организация и после обучения ставит в строй. Силы возрожденных героев легко угадать по кодовому имени – Ньютон правит тяготением, Ганди ставит могучую защиту, а как сражается Джек Потрошитель – вы поняли. Только вот атака пришельцев на остров Тайвань оказалась внезапной и продуманной, поражение казалось неизбежным, но… нежданная помощь пришла вовремя!
Сио Огура – странная девчонка, тайная фанатка всего военного. Даже в старшей школе она предпочитает жизнь одиночки, восхищаясь своим кумиром, одноклассницей Каору Асао, на расстоянии. Но во время экскурсии на Тайвань случилось страшное – повсюду монстры, Асао грозила смерть, сама Сио готова была разорваться от горя и отчаяния, и тут внутри девушки раздался спокойный и властный голос: «А теперь мы их всех убьем». Да, в Огуре возродился сам Ода Нобунага, выбрав оружием ручной пулемет, больше похожий на мини-пушку, да и еще и стреляющий на три стороны. Вот теперь Земля и любимая Каору могут спать спокойно, а монстры могут подходить всей толпой – патроны-то бесконечные!
© Hollow, World Art
Качество: HDTVRip
Тип релиза: Без хардсаба
Формат видео: MP4
Наличие линковки: Нет
Видео: AVC; 1280x720; 23.976 fps; ~1923 Kbps, 8 bits
Аудио: AAC; 192 kbps; stereo; 48 KHz, 2 ch Язык Русский (в составе контейнера) ; Озвучка: двухголосая муж./жен., Lonely Dragon & Reina
Подробные тех. данные
GeneralComplete name : D:\Anime\[AniDub]_Nobunagun\[AniDub]_Nobunagun_[01]_[720p_x264_AAC]_[LonelyDragon_Reina].mp4Format : MPEG-4Format profile : Base MediaCodec ID : isomFile size : 364 MiBDuration : 23mn 59sOverall bit rate : 2 119 KbpsEncoded date : UTC 2014-01-07 19:36:20Tagged date : UTC 2014-01-07 19:36:20Writing application : Yamb 2.1.0.0 []http://yamb.unite-video.com]
VideoID : 1Format : AVCFormat/Info : Advanced Video CodecFormat profile : High@L4.1Format settings, CABAC : YesFormat settings, ReFrames : 4 framesCodec ID : avc1Codec ID/Info : Advanced Video CodingDuration : 23mn 59sBit rate mode : VariableBit rate : 1 923 KbpsMaximum bit rate : 14.4 MbpsWidth : 1 280 pixelsHeight : 720 pixelsDisplay aspect ratio : 16:9Frame rate mode : ConstantFrame rate : 23.976 fpsColor space : YUVChroma subsampling : 4:2:0Bit depth : 8 bitsScan type : ProgressiveBits/(Pixel*Frame) : 0.087Stream size : 330 MiB (91%)Title : 264Writing library : x264 core 129 r2245+729M 1a52e03Encoding settings : cabac=1 / ref=4 / deblock=1:1:-1 / analyse=0x3:0x113 / me=umh / subme=9 / psy=1 / fade_compensate=0.00 / psy_rd=1.00:0.00 / mixed_ref=1 / me_range=24 / chroma_me=1 / trellis=2 / 8x8dct=1 / cqm=0 / deadzone=21,11 / fast_pskip=1 / chroma_qp_offset=-2 / threads=8 / lookahead_threads=1 / sliced_threads=0 / nr=0 / decimate=1 / interlaced=0 / bluray_compat=0 / constrained_intra=0 / fgo=0 / bframes=9 / b_pyramid=2 / b_adapt=2 / b_bias=0 / direct=1 / weightb=1 / open_gop=0 / weightp=2 / keyint=240 / keyint_min=24 / scenecut=40 / intra_refresh=0 / rc=crf / mbtree=0 / crf=19.0 / qcomp=0.72 / qpmin=0 / qpmax=69 / qpstep=4 / ip_ratio=1.40 / pb_ratio=1.30 / aq=1:0.85 / zones=0,2002,b=1.5/30744,31316,b=1.5Encoded date : UTC 2014-01-05 15:12:36Tagged date : UTC 2014-01-07 19:36:24Color primaries : BT.709-5, BT.1361, IEC 61966-2-4, SMPTE RP177Transfer characteristics : BT.709-5, BT.1361Matrix coefficients : BT.709-5, BT.1361, IEC 61966-2-4 709, SMPTE RP177
AudioID : 2Format : AACFormat/Info : Advanced Audio CodecFormat version : Version 4Format profile : LCFormat settings, SBR : NoCodec ID : 40Duration : 23mn 59sBit rate mode : VariableBit rate : 192 KbpsMaximum bit rate : 198 KbpsChannel(s) : 2 channelsChannel positions : Front: L RSampling rate : 48.0 KHzStream size : 33.0 MiB (9%)Title : Lonely Dragon & ReinaLanguage : RussianEncoded date : UTC 2014-01-07 19:36:24Tagged date : UTC 2014-01-07 19:36:24
Список эпизодов
Пушка первая: Ода Нобунага
Пушка вторая: Вторженцы
Пушка третья: Остров Каппы
Пушка четвёртая: Ураган
Пушка пятая: Второй отряд
Пушка шестая: Монстра на мясо
Пушка седьмая: Чудесное Мусаши
Пушка восьмая: Тоннель
Пушка девятая: Сио да Каору
Пушка десятая: DOGOO
Пушка одиннадцатая: Каменный лес. Часть первая
Пушка двенадцатая: Каменный лес. Часть вторая
Пушка тринадцатая: Нобунаган
Отличия
http://rutracker.org/forum/viewtopic.php?t=4634244 - наличие озвучки, 720р
http://rutracker.org/forum/viewtopic.php?t=4636712 - альтернативная озвучка
http://rutracker.org/forum/viewtopic.php?t=4634210 - альтернативная озвучка
Скриншоты

_________________
Показать сообщения:    

Текущее время: Сегодня 09:08

Часовой пояс: GMT



Вы не можете начинать темы
Вы не можете отвечать на сообщения
Вы не можете редактировать свои сообщения
Вы не можете удалять свои сообщения
Вы не можете голосовать в опросах
Вы не можете прикреплять файлы к сообщениям
Вы не можете скачивать файлы