Важное объявление!
У Нас Все раздачи мультитрекерные, при нуле пиров в релизах, можете смело вставать на закачку!
 
Автор Сообщение

HUNTER

Стаж:
4 года 4 месяца
Сообщений:
56809

Репутация: 101

[+] [-]
Вне форума [Профиль] [ЛС]

Путь в Марсель / Passage to Marseille-
Год выпуска: 1944
Страна: США
Жанр: драма, военный
Продолжительность: 01:49:05
Перевод: Авторский (одноголосый закадровый) Григорий Либергал
Оригинальная аудиодорожка: Английская
Cубтитры: Английские-Режиссер: Майкл Кёртиц / Michael Curtiz
В ролях: Хамфри Богарт, Клод Рейнс, Мишель Морган, Филип Дорн, Сидни Гринстрит, Петер Лорре, Джордж Тобиаш, Хельмут Дантин, Джон Лодер, Виктор Франсен-Описание:
Англия, разгар Второй мировой войны.
Военный корреспондент прибывает в расположение эскадрильи "Свободная Франция" расположенной на побережье Великобритании и замаскированной под сельскохозяйственную ферму. Здесь он знакомится с капитаном Фрейкинетом руководителем авиабазы, который поведал ему впечатляющую историю офицера Жана Матрака - одного из лучших авиационных стрелков - бомбардировщиков, прошедшего нелегкий путь, подвергшегося суровым испытаниям и с честью их преодолевшим, во имя свободы любимой Франции...-За дорожку спасибо a2000s.
| IMDb | Сэмпл-Качество: WEB-DL 720p (SbR)
Контейнер: MKV
Видео: AVC, 986x720 (1.37:1), 23.976 fps, 4296 kbps
Аудио 1: Русский AC3, 2.0, 48 kHz, 192 kbps
Аудио 2: Английский AC3, 1.0, 48 kHz, 192 kbps
Аудио 3: Английский AAC, 2.0, 48 kHz, 121 kbps
Формат субтитров: softsub (SRT)
СкриншотыMI
General
Unique ID : 232268283909050087970147653339856748974 (0xAEBD3E8B2D9097D58EFCBA7F0B57C1AE)
Complete name : Passage.to.Marseille.1944.720p.WEB-DL.H.264-SbR.mkv
Format : Matroska
Format version : Version 2
File size : 3.66 GiB
Duration : 1h 49mn
Overall bit rate : 4 807 Kbps
Movie name : Passage to Marseille / Путь в Марсель (1944) – RuTracker
Encoded date : UTC 2014-06-25 17:52:05
Writing application : mkvmerge v7.0.0 ('Where We Going') 64bit built on Jun 9 2014 15:16:27
Writing library : libebml v1.3.0 + libmatroska v1.4.1
Attachment : Yes
Video
ID : 1
Format : AVC
Format/Info : Advanced Video Codec
Format profile : High@L3.1
Format settings, CABAC : No
Format settings, ReFrames : 2 frames
Codec ID : V_MPEG4/ISO/AVC
Duration : 1h 49mn
Width : 986 pixels
Height : 720 pixels
Display aspect ratio : 4:3
Frame rate mode : Constant
Frame rate : 23.976 fps
Color space : YUV
Chroma subsampling : 4:2:0
Bit depth : 8 bits
Scan type : Progressive
Title : Passage.to.Marseille.1944.720p.WEB-DL.AAC2.0.H.264-SbR
Language : English
Default : Yes
Forced : No
Color primaries : BT.709
Transfer characteristics : BT.709
Matrix coefficients : BT.709
Audio #1
ID : 2
Format : AC-3
Format/Info : Audio Coding 3
Mode extension : CM (complete main)
Format settings, Endianness : Big
Codec ID : A_AC3
Duration : 1h 49mn
Bit rate mode : Constant
Bit rate : 192 Kbps
Channel(s) : 2 channels
Channel positions : Front: L R
Sampling rate : 48.0 KHz
Bit depth : 16 bits
Compression mode : Lossy
Stream size : 150 MiB (4%)
Title : AVO – Г.Либергал
Language : Russian
Default : Yes
Forced : No
Audio #2
ID : 3
Format : AC-3
Format/Info : Audio Coding 3
Mode extension : CM (complete main)
Format settings, Endianness : Big
Codec ID : A_AC3
Duration : 1h 49mn
Bit rate mode : Constant
Bit rate : 192 Kbps
Channel(s) : 1 channel
Channel positions : Front: C
Sampling rate : 48.0 KHz
Bit depth : 16 bits
Compression mode : Lossy
Stream size : 150 MiB (4%)
Title : Original (DVD)
Language : English
Default : No
Forced : No
Audio #3
ID : 4
Format : AAC
Format/Info : Advanced Audio Codec
Format profile : LC
Codec ID : A_AAC
Duration : 1h 49mn
Channel(s) : 2 channels
Channel positions : Front: L R
Sampling rate : 48.0 KHz
Compression mode : Lossy
Title : Original (iTunes)
Language : English
Default : No
Forced : No
Text
ID : 5
Format : UTF-8
Codec ID : S_TEXT/UTF8
Codec ID/Info : UTF-8 Plain Text
Language : English
Default : No
Forced : No
Menu
00:00:00.000 : en:Credits and Foreword.
00:01:54.000 : en:Bombing raid.
00:05:24.000 : en:Hidden airbase.
00:11:00.000 : en:Cows in, planes out.
00:15:30.000 : en:Passage to Marseille.
00:20:48.000 : en:Castaways.
00:26:24.000 : en:Free men's story.
00:33:03.000 : en:Admitting to the truth.
00:37:33.000 : en:French Guyana horrors.
00:39:38.000 : en:Grandpere.
00:43:25.000 : en:Talk of home.
00:48:07.000 : en:Silenced by the mob.
00:51:14.000 : en:Newlyweds.
00:55:33.000 : en:Murder suspect.
00:59:40.000 : en:Arrested and sentenced.
01:01:48.000 : en:Solitary savagery.
01:05:16.000 : en:Night of escape.
01:08:59.000 : en:One too many.
01:11:34.000 : en:Fighting oath.
01:16:41.000 : en:Changed courses.
01:21:46.000 : en:New order.
01:25:38.000 : en:Retaking the ship.
01:27:58.000 : en:Air attack.
01:32:25.000 : en:Marius and the enemy downed.
01:34:21.000 : en:Assassins.
01:36:17.000 : en:Return from a raid.
01:39:48.000 : en:Birthday boy.
01:43:30.000 : en:Fallen hero.
01:46:22.000 : en:France lives.

_________________
Показать сообщения:    

Текущее время: Сегодня 17:53

Часовой пояс: GMT



Вы не можете начинать темы
Вы не можете отвечать на сообщения
Вы не можете редактировать свои сообщения
Вы не можете удалять свои сообщения
Вы не можете голосовать в опросах
Вы не можете прикреплять файлы к сообщениям
Вы не можете скачивать файлы