Важное объявление!
У Нас Все раздачи мультитрекерные, при нуле пиров в релизах, можете смело вставать на закачку!
 
Автор Сообщение

HUNTER

Стаж:
4 года 4 месяца
Сообщений:
56790

Репутация: 101

[+] [-]
Вне форума [Профиль] [ЛС]

Paths of Hate
Пути ненависти
Год выпуска: 2010
Страна: Польша
Студия: Platige Image
Жанр: мультфильм, короткометражный
Продолжительность: 00:10:39
Перевод: Не требуется
Режиссер: Дамиан Ненов / Damian Nenow
Описание:
Стремление к слепой ненависти, своеобразному бешенству или разрушительной ярости приводят к полному разрушению в конце. Не имеет значения, два это человека или миллион людей. Жизнь очень коротка. Будущее поколение получит не больше, чем шрамы - кровавые следы путей ненависти...-Качество: WEB-DL 720p
Формат: MP4
Видео: MPEG4 Video (H264) 1280x720 25 fps 18646 Кбит/сек
Аудио: AAC 48000Hz stereo 128 Кбит/сек-Скриншоты-Отличия от предыдущих раздач:
-Azureus-, leonchic - лучшее качество видео.
Сравнительные скриншоты
MinorDespera:

-Azureus-:

leonchic:
(все скриншоты оказывались чуть сдвинутыми влево в том же кадре, а по четвёртому скриншоту выяснилось, что это какая-то другая версия - присутствуют трещины, которых нет в Web рипе)

gifMediaInfo
General
Complete name : paths-of-hate-720p.mp4
Format : MPEG-4
Format profile : Base Media / Version 2
Codec ID : mp42
File size : 1.40 GiB
Duration : 10mn 38s
Overall bit rate mode : Variable
Overall bit rate : 18.8 Mbps
Writing application : TMPGEnc Video Mastering Works 5 Version. 5.0.6.38
Video
ID : 2
Format : AVC
Format/Info : Advanced Video Codec
Format profile : High@L3.2
Format settings, CABAC : Yes
Format settings, ReFrames : 3 frames
Codec ID : avc1
Codec ID/Info : Advanced Video Coding
Duration : 10mn 38s
Bit rate mode : Constant
Bit rate : 18.6 Mbps
Nominal bit rate : 23.0 Mbps / 23.0 Mbps
Width : 1 280 pixels
Height : 720 pixels
Display aspect ratio : 16:9
Frame rate mode : Constant
Frame rate : 25.000 fps
Standard : NTSC
Color space : YUV
Chroma subsampling : 4:2:0
Bit depth : 8 bits
Scan type : Progressive
Bits/(Pixel*Frame) : 0.809
Stream size : 1.39 GiB (99%)
Writing library : x264 core 114
Encoding settings : cabac=1 / ref=3 / deblock=1:0:0 / analyse=0x3:0x113 / me=hex / subme=7 / psy=1 / psy_rd=1.00:0.00 / mixed_ref=1 / me_range=16 / chroma_me=1 / trellis=1 / 8x8dct=1 / cqm=2 / deadzone=21,11 / fast_pskip=1 / chroma_qp_offset=-2 / threads=12 / sliced_threads=0 / slices=1 / nr=0 / decimate=1 / interlaced=0 / constrained_intra=0 / bframes=3 / b_pyramid=0 / b_adapt=1 / b_bias=0 / direct=1 / weightb=1 / open_gop=0 / weightp=2 / keyint=250 / keyint_min=25 / scenecut=40 / intra_refresh=0 / rc_lookahead=40 / rc=cbr / mbtree=1 / bitrate=23000 / ratetol=1.0 / qcomp=0.60 / qpmin=3 / qpmax=69 / qpstep=4 / vbv_maxrate=23000 / vbv_bufsize=22986 / nal_hrd=cbr / ip_ratio=1.40 / aq=1:1.00
Color primaries : BT.709
Transfer characteristics : BT.709
Matrix coefficients : BT.709
Audio
ID : 1
Format : AAC
Format/Info : Advanced Audio Codec
Format profile : LC
Codec ID : 40
Duration : 10mn 38s
Bit rate mode : Variable
Bit rate : 128 Kbps
Maximum bit rate : 576 Kbps
Channel(s) : 2 channels
Channel positions : Front: L R
Sampling rate : 48.0 KHz
Compression mode : Lossy
Stream size : 9.75 MiB (1%)

_________________
Показать сообщения:    

Текущее время: Сегодня 19:52

Часовой пояс: GMT



Вы не можете начинать темы
Вы не можете отвечать на сообщения
Вы не можете редактировать свои сообщения
Вы не можете удалять свои сообщения
Вы не можете голосовать в опросах
Вы не можете прикреплять файлы к сообщениям
Вы не можете скачивать файлы