Важное объявление!
У Нас Все раздачи мультитрекерные, при нуле пиров в релизах, можете смело вставать на закачку!
 
Автор Сообщение

HUNTER

Стаж:
4 года 4 месяца
Сообщений:
56798

Репутация: 101

[+] [-]
Вне форума [Профиль] [ЛС]

Путешествия Гулливера / Gulliver's Travels-
Страна: США
Жанр: Полнометражный мультфильм
Продолжительность: 01:16:21
Год выпуска: 1939
Перевод (1): Профессиональный (многоголосый закадровый)
Перевод (2): Профессиональный (многоголосый закадровый) - Filmexport
Перевод (3): Профессиональный (многоголосый закадровый) - ИДДК
Перевод (4): Профессиональный (многоголосый закадровый)
Перевод (5): Авторский (одноголосый закадровый) - Ю.Живов
Перевод (6): Авторский (одноголосый закадровый) - Л.Володарский
Перевод (7): Авторский (одноголосый закадровый) - неизвестный
Русские субтитры: нет-Режиссёр: Макс Флейшер / Maх Fleischer
Роли озвучивали: Джессика Драгонетте, Лэнни Росс, Пинто Колвиг, Джек Мерсер, Сэм Паркер, Тед Пирс-Описание: ~По мотивам бессмертной повести Джонатана Свифта. После кораблекрушения молодой Гулливер оказался на неизвестном острове в плену у жителей страны Лилипутия. Само название страны говорит о том, как выглядят ее обитатели. Вначале жители Лилипутии встречают Гулливера вполне приветливо. И вот он узнает, что Лилипутия находится в состоянии войны с соседним островом Блефуску. Однако после того как он использовал свой гигантский рост, чтобы организовать секретное свидание принца Песто с его возлюбленной принцессой Мариной, Гулливера стали считать шпионом…
Сейчас только настоящий подвиг может положить конец этой изнурительной войне между двумя соперничающими королевствами, населенными крошечными жителями… Удастся ли Гулливеру прекратить междоусобицу? (КиноПоиск.Ru)
-Доп. информация:
Релиз: Рип, постер - анвад - -Работа со звуком:
Многоголосые переводы анвад
Авторские переводы взяты из этой раздачи, за что большое спасибо xfiles
Отдельная благодарность за предоставленный перевод от Filmexport smit009-Семпл
Качество: BDRip (Исходник Blu-ray Disc от Thunderbean Animation)
Формат: AVI
Видео: 720x544 (4:3), 23.976 fps, XviD build 65, 2390 kbps, 0.254 bit/pixel
Аудио 1#: [RUS] AC3, 2/0 ch, 48 kHz, 192 kbps |Многоголосый закадровый|
Аудио 2#: [RUS] AC3, 2/0 ch, 48 kHz, 192 kbps |Многоголосый закадровый| Filmexport
Аудио 3#: [RUS] AC3, 2/0 ch, 48 kHz, 192 kbps |Многоголосый закадровый| ИДДК
Аудио 4#: [RUS] AC3, 2/0 ch, 48 kHz, 192 kbps |Многоголосый закадровый|
Аудио 5#: [RUS] AC3, 2/0 ch, 48 kHz, 192 kbps |Одноголосый закадровый| Живов
Аудио 6#: [RUS] AC3, 2/0 ch, 48 kHz, 192 kbps |Одноголосый закадровый| Володарский
Аудио 7#: [RUS] AC3, 2/0 ch, 48 kHz, 192 kbps |Одноголосый закадровый| неизвестный
Аудио 8#: [ENG] AC3, 2/0 ch, 48 kHz, 192 kbps |Original|
Субтитры: English (SRT) отдельным файлом

MediaInfo

Общее
Полное имя : H:\Gulliver's.Travels.1939.BDRip\Gulliver's.Travels.1939.BDRip(by anwad) 4xMVO_3xAVO_ENG_SRT.avi
Формат : AVI
Формат/Информация : Audio Video Interleave
Профиль формата : OpenDML
Размер файла : 2,12 Гбайт
Продолжительность : 1 ч. 16 м.
Общий поток : 3981 Кбит/сек
Программа кодирования : VirtualDubMod 1.5.10.3 | www.virtualdub-fr.org || (build 2550/release)
Библиотека кодирования : VirtualDubMod build 2550/release
Видео
Идентификатор : 0
Формат : MPEG-4 Visual
Профиль формата : Advanced Simple@L5
Параметр BVOP формата : 2
Параметр QPel формата : Нет
Параметр GMC формата : Без точки перехода
Параметр матрицы формата : Выборочная
Идентификатор кодека : XVID
Идентификатор кодека/Подсказка : XviD
Продолжительность : 1 ч. 16 м.
Битрейт : 2390 Кбит/сек
Ширина : 720 пикселей
Высота : 544 пикселя
Соотношение сторон : 4:3
Частота кадров : 23,976 кадра/сек
Цветовое пространство : YUV
Субдискретизация насыщенности : 4:2:0
Битовая глубина : 8 бит
Тип развёртки : Прогрессивная
Метод сжатия : С потерями
Бит/(Пиксели*Кадры) : 0.254
Размер потока : 1,27 Гбайт (60%)
Библиотека кодирования : XviD 65
Аудио #1
Идентификатор : 1
Формат : AC-3
Формат/Информация : Audio Coding 3
Расширение режима : CM (complete main)
Параметр Endianness формата : Big
Идентификатор кодека : 2000
Продолжительность : 1 ч. 16 м.
Вид битрейта : Постоянный
Битрейт : 192 Кбит/сек
Каналы : 2 канала
Расположение каналов : Front: L R
Частота : 48,0 КГц
Битовая глубина : 16 бит
Метод сжатия : С потерями
Размер потока : 105 Мбайт (5%)
Выравнивание : Разделение по промежуткам
Продолжительность промежутка : 42 мс. (1,00 видеокадр)
Время предзагрузки промежутка : 500 мс.
Аудио #2
Идентификатор : 2
Формат : AC-3
Формат/Информация : Audio Coding 3
Расширение режима : CM (complete main)
Параметр Endianness формата : Big
Идентификатор кодека : 2000
Продолжительность : 1 ч. 16 м.
Вид битрейта : Постоянный
Битрейт : 192 Кбит/сек
Каналы : 2 канала
Расположение каналов : Front: L R
Частота : 48,0 КГц
Битовая глубина : 16 бит
Метод сжатия : С потерями
Размер потока : 105 Мбайт (5%)
Выравнивание : Разделение по промежуткам
Продолжительность промежутка : 42 мс. (1,00 видеокадр)
Время предзагрузки промежутка : 500 мс.
Аудио #3
Идентификатор : 3
Формат : AC-3
Формат/Информация : Audio Coding 3
Расширение режима : CM (complete main)
Параметр Endianness формата : Big
Идентификатор кодека : 2000
Продолжительность : 1 ч. 16 м.
Вид битрейта : Постоянный
Битрейт : 192 Кбит/сек
Каналы : 2 канала
Расположение каналов : Front: L R
Частота : 48,0 КГц
Битовая глубина : 16 бит
Метод сжатия : С потерями
Размер потока : 105 Мбайт (5%)
Выравнивание : Разделение по промежуткам
Продолжительность промежутка : 42 мс. (1,00 видеокадр)
Время предзагрузки промежутка : 500 мс.
Аудио #4
Идентификатор : 4
Формат : AC-3
Формат/Информация : Audio Coding 3
Расширение режима : CM (complete main)
Параметр Endianness формата : Big
Идентификатор кодека : 2000
Продолжительность : 1 ч. 16 м.
Вид битрейта : Постоянный
Битрейт : 192 Кбит/сек
Каналы : 2 канала
Расположение каналов : Front: L R
Частота : 48,0 КГц
Битовая глубина : 16 бит
Метод сжатия : С потерями
Размер потока : 105 Мбайт (5%)
Выравнивание : Разделение по промежуткам
Продолжительность промежутка : 42 мс. (1,00 видеокадр)
Время предзагрузки промежутка : 500 мс.
Аудио #5
Идентификатор : 5
Формат : AC-3
Формат/Информация : Audio Coding 3
Расширение режима : CM (complete main)
Параметр Endianness формата : Big
Идентификатор кодека : 2000
Продолжительность : 1 ч. 16 м.
Вид битрейта : Постоянный
Битрейт : 192 Кбит/сек
Каналы : 2 канала
Расположение каналов : Front: L R
Частота : 48,0 КГц
Битовая глубина : 16 бит
Метод сжатия : С потерями
Размер потока : 105 Мбайт (5%)
Выравнивание : Разделение по промежуткам
Продолжительность промежутка : 42 мс. (1,00 видеокадр)
Время предзагрузки промежутка : 500 мс.
Аудио #6
Идентификатор : 6
Формат : AC-3
Формат/Информация : Audio Coding 3
Расширение режима : CM (complete main)
Параметр Endianness формата : Big
Идентификатор кодека : 2000
Продолжительность : 1 ч. 16 м.
Вид битрейта : Постоянный
Битрейт : 192 Кбит/сек
Каналы : 2 канала
Расположение каналов : Front: L R
Частота : 48,0 КГц
Битовая глубина : 16 бит
Метод сжатия : С потерями
Размер потока : 105 Мбайт (5%)
Выравнивание : Разделение по промежуткам
Продолжительность промежутка : 42 мс. (1,00 видеокадр)
Время предзагрузки промежутка : 500 мс.
Аудио #7
Идентификатор : 7
Формат : AC-3
Формат/Информация : Audio Coding 3
Расширение режима : CM (complete main)
Параметр Endianness формата : Big
Идентификатор кодека : 2000
Продолжительность : 1 ч. 16 м.
Вид битрейта : Постоянный
Битрейт : 192 Кбит/сек
Каналы : 2 канала
Расположение каналов : Front: L R
Частота : 48,0 КГц
Битовая глубина : 16 бит
Метод сжатия : С потерями
Размер потока : 105 Мбайт (5%)
Выравнивание : Разделение по промежуткам
Продолжительность промежутка : 42 мс. (1,00 видеокадр)
Время предзагрузки промежутка : 500 мс.
Аудио #8
Идентификатор : 8
Формат : AC-3
Формат/Информация : Audio Coding 3
Расширение режима : CM (complete main)
Параметр Endianness формата : Big
Идентификатор кодека : 2000
Продолжительность : 1 ч. 16 м.
Вид битрейта : Постоянный
Битрейт : 192 Кбит/сек
Каналы : 2 канала
Расположение каналов : Front: L R
Частота : 48,0 КГц
Битовая глубина : 16 бит
Метод сжатия : С потерями
Размер потока : 105 Мбайт (5%)
Выравнивание : Разделение по промежуткам
Продолжительность промежутка : 42 мс. (1,00 видеокадр)
Время предзагрузки промежутка : 500 мс.
-Рекомендую к просмотру перевод (1) : Профессиональный (многоголосый закадровый)-Приятного просмотра!

_________________
Показать сообщения:    

Текущее время: Сегодня 21:48

Часовой пояс: GMT



Вы не можете начинать темы
Вы не можете отвечать на сообщения
Вы не можете редактировать свои сообщения
Вы не можете удалять свои сообщения
Вы не можете голосовать в опросах
Вы не можете прикреплять файлы к сообщениям
Вы не можете скачивать файлы