Важное объявление!
У Нас Все раздачи мультитрекерные, при нуле пиров в релизах, можете смело вставать на закачку!
 
Автор Сообщение

HUNTER

Стаж:
4 года 4 месяца
Сообщений:
56798

Репутация: 101

[+] [-]
Вне форума [Профиль] [ЛС]

Путешествия Гулливера / Gulliver's Travels
Страна: США
Жанр: мультфильм, семейный, приключения
Продолжительность: 00:47:07
Год выпуска: 1996
Перевод: Профессиональный (дублированный)
Русские субтитры: нет
оригинальная дорожка: английский

Режиссёр: Диана Эшкенази / Diane Eskenazi
Описание: После кораблекрушения молодой Гулливер оказался на неизвестном острове в плену у жителей страны Лилипутия, каждый из которых был ростом с большой палец. Завоевав доверие лилипутов, Гулливер стал помогать жителям королевства, используя свой огромный рост.
В то время Лилипутия находилась в состоянии войны с соседним островом Ла Фуско. После того как Гулливер помог принцу Песто тайно встретиться с его возлюбленной принцессой Мариной, его стали считать шпионом… Гулливер прилагает все усилия, чтобы положить конец изнурительной войне между двумя королевствами, населенными крошечными жителями.
-
-
-За исходный DVB большое спасибо grandmajor и xfiles !-
-
-Качество: SATRip
Формат: AVI
Видео: 528x400 (1.32:1), 25 fps, XviD build 73 ~2002 kbps avg, 0.38 bit/pixel
Аудио: 48 kHz, MPEG Layer 3, 1 ch, ~96.00 kbps avg - дубляж
Аудио: 48 kHz, MPEG Layer 3, 1 ch, ~96.00 kbps avg - оригинал
Субтитры: отсутствуют

Подробные технические данные

ОбщееПолное имя : H:\Gulliver's.Travels.1996.satrip_[745]_[teko].aviФормат : AVIФормат/Информация : Audio Video InterleaveРазмер файла : 745 МбайтПродолжительность : 47 м.Общий поток : 2210 Кбит/секПрограмма кодирования : VirtualDubMod 1.5.10.3 | www.virtualdub-fr.org || (build 2550/release)Библиотека кодирования : VirtualDubMod build 2550/release
ВидеоИдентификатор : 0Формат : MPEG-4 VisualПрофиль формата : Advanced Simple@L5Параметр BVOP формата : 2Параметр QPel формата : НетПараметр GMC формата : Без точки переходаПараметр матрицы формата : ВыборочнаяИдентификатор кодека : XVIDИдентификатор кодека/Подсказка : XviDПродолжительность : 47 м.Битрейт : 2004 Кбит/секШирина : 528 пикселейВысота : 400 пикселейСоотношение сторон : 4:3Частота кадров : 25,000 кадров/секЦветовое пространство : YUVСубдискретизация насыщенности : 4:2:0Битовая глубина : 8 битТип развёртки : ПрогрессивнаяМетод сжатия : С потерямиБит/(Пиксели*Кадры) : 0.380Размер потока : 675 Мбайт (91%)Библиотека кодирования : XviD 73
Аудио #1Идентификатор : 1Формат : MPEG AudioВерсия формата : Version 1Профиль формата : Layer 3Идентификатор кодека : 55Идентификатор кодека/Подсказка : MP3Продолжительность : 47 м.Вид битрейта : ПостоянныйБитрейт : 96,0 Кбит/секКаналы : 1 каналЧастота : 48,0 КГцМетод сжатия : С потерямиРазмер потока : 32,4 Мбайт (4%)Выравнивание : Соединение по промежуткамПродолжительность промежутка : 40 мс. (1,00 видеокадр)Время предзагрузки промежутка : 504 мс.
Аудио #2Идентификатор : 2Формат : MPEG AudioВерсия формата : Version 1Профиль формата : Layer 3Идентификатор кодека : 55Идентификатор кодека/Подсказка : MP3Продолжительность : 47 м.Вид битрейта : ПостоянныйБитрейт : 96,0 Кбит/секКаналы : 1 каналЧастота : 48,0 КГцМетод сжатия : С потерямиРазмер потока : 32,4 Мбайт (4%)Выравнивание : Соединение по промежуткамПродолжительность промежутка : 40 мс. (1,00 видеокадр)Время предзагрузки промежутка : 504 мс.
Релиз группы:
--

_________________
Показать сообщения:    

Текущее время: Сегодня 05:25

Часовой пояс: GMT



Вы не можете начинать темы
Вы не можете отвечать на сообщения
Вы не можете редактировать свои сообщения
Вы не можете удалять свои сообщения
Вы не можете голосовать в опросах
Вы не можете прикреплять файлы к сообщениям
Вы не можете скачивать файлы