Важное объявление!
У Нас Все раздачи мультитрекерные, при нуле пиров в релизах, можете смело вставать на закачку!
 
Автор Сообщение

HUNTER

Стаж:
4 года 4 месяца
Сообщений:
56839

Репутация: 101

[+] [-]
Вне форума [Профиль] [ЛС]

Путешествие к центру Земли / Journey To The Center Of The Earth
Страна: США
Жанр: Семейный, приключения, фантастика
Продолжительность: 00:45:41
Год выпуска: 1996
Перевод: Профессиональный (многоголосый закадровый)
Русские субтитры: нет
Режиссёр: Лора Шеферд / Laura Shepherd-Описание: Все началось в 1897 году в Англии. Тринадцатилетняя девочка по имени Алексель была очень любознательна. Она то и дело проводила эксперименты со своими зверушками и вечно разгадывала трудные шарады. А любовь к науке привил ей отец, знаменитый ученый, который преподавал в университете. Однажды он прочел лекцию на научной конференции, где рассказал о своих открытиях в области подземных вулканов. Предложение совершить путешествие в подземное царство вызвало в аудитории непонимание и полный скепсис. Но Алексель поддержала отца. И экспедиция состоялась. Друзья попадают в удивительный, загадочный мир, где обитают и доисторические животные, и невиданные растения.-Качество: DVDRip
Формат: AVI
Видео: XviD, 640x480 (4:3), 23,976 fps, ~1900 kbps
Аудио 1: AC3, 48 kHz, 1 ch, 96 kbps (Rus)
Аудио 2: AC3, 48 kHz, 1 ch, 96 kbps (Eng)
Субтитры: отсутствуют
Релиз: Благодарность xfiles за работу со звуком.

Подробные технические данные

ОбщееПолное имя : E:\MULTFILMS\Journey To The Center Of Earth 1996 DVDRip.aviФормат : AVIФормат/Информация : Audio Video InterleaveРазмер файла : 702 МбайтПродолжительность : 45 м.Общий поток : 2149 Кбит/секПрограмма кодирования : VirtualDubMod 1.5.10.2 (build 2542/release)Библиотека кодирования : VirtualDubMod build 2542/release
ВидеоИдентификатор : 0Формат : MPEG-4 VisualПрофиль формата : Advanced Simple@L5Параметр BVOP формата : 2Параметр QPel формата : НетПараметр GMC формата : Без точки переходаПараметр матрицы формата : ВыборочнаяИдентификатор кодека : XVIDИдентификатор кодека/Подсказка : XviDПродолжительность : 45 м.Битрейт : 1943 Кбит/секШирина : 640 пикселейВысота : 480 пикселейСоотношение сторон : 4:3Частота кадров : 23,976 кадра/секЦветовое пространство : YUVСубдискретизация насыщенности : 4:2:0Битовая глубина : 8 битТип развёртки : ПрогрессивнаяМетод сжатия : С потерямиБит/(Пиксели*Кадры) : 0.264Размер потока : 635 Мбайт (90%)Библиотека кодирования : XviD 65
Аудио #1Идентификатор : 1Формат : AC-3Формат/Информация : Audio Coding 3Расширение режима : CM (complete main)Параметр Endianness формата : BigИдентификатор кодека : 2000Продолжительность : 45 м.Вид битрейта : ПостоянныйБитрейт : 96,0 Кбит/секКаналы : 1 каналРасположение каналов : Front: CЧастота : 48,0 КГцБитовая глубина : 16 битМетод сжатия : С потерямиРазмер потока : 31,4 Мбайт (4%)Выравнивание : Разделение по промежуткамПродолжительность промежутка : 42 мс. (1,00 видеокадр)Время предзагрузки промежутка : 500 мс.
Аудио #2Идентификатор : 2Формат : AC-3Формат/Информация : Audio Coding 3Расширение режима : CM (complete main)Параметр Endianness формата : BigИдентификатор кодека : 2000Продолжительность : 45 м.Вид битрейта : ПостоянныйБитрейт : 96,0 Кбит/секКаналы : 1 каналРасположение каналов : Front: CЧастота : 48,0 КГцБитовая глубина : 16 битМетод сжатия : С потерямиРазмер потока : 31,4 Мбайт (4%)Выравнивание : Разделение по промежуткамПродолжительность промежутка : 42 мс. (1,00 видеокадр)Время предзагрузки промежутка : 500 мс.

Скриншоты



_________________
Показать сообщения:    

Текущее время: Сегодня 02:53

Часовой пояс: GMT



Вы не можете начинать темы
Вы не можете отвечать на сообщения
Вы не можете редактировать свои сообщения
Вы не можете удалять свои сообщения
Вы не можете голосовать в опросах
Вы не можете прикреплять файлы к сообщениям
Вы не можете скачивать файлы