Важное объявление!
У Нас Все раздачи мультитрекерные, при нуле пиров в релизах, можете смело вставать на закачку!
 
Автор Сообщение

HUNTER

Стаж:
4 года 4 месяца
Сообщений:
56829

Репутация: 101

[+] [-]
Вне форума [Профиль] [ЛС]

Путешественники во времени / The Time Travelers
Страна: США
Студия: American International Pictures
Жанр: фантастика
Год выпуска: 1964
Продолжительность: 01:20:08
Перевод: Одноголосый закадровый Трамвай-фильм
Cубтитры: нет
Оригинальная аудиодорожка: английский
Режиссер: Иб Мельхиор / Ib Melchior
В ролях: Престон Фостер, Филипп Кэри, Мерри Андерс, Джон Хойт
Описание: Группа ученых экспериментирует с проникновением в будущее. Однажды их усилия заканчиваются успехом, и ученым удается открыть временной портал. Они оказываются в не столь отдаленном будущем, где обнаруживают, что наша планета опустошена ядерной войной. Но тут случается непредвиденное: портал времени исчезает, и путешественники не успевают вернуться в свою эпоху. Вскоре ученые обнаруживают, что на Земле выжили лишь мутанты, которые нападают на них. Несчастных исследователей спасают другие ученые, которым удалось построить космическую ракету, на которой они собираются перебраться на другую планету. Путешественники во времени оказываются внутри ракеты, где обнаруживают, что ее обслуживают построенные выжившими людьми роботы. Когда ученые узнают, что их коллеги прибыли из прошлого, то говорят, что не могут взять их с собой на другую планету. Итак, нашим героям нужно успеть до отлета открыть временной портал, ибо находящиеся на воле мутанты подбираются все ближе и ближе к ракете…
Первая эпизодическая роль известного фаната фильмов ужасов и фантастики, издателя знаменитейшего фан-журнала «Famous Monsters of Filmland» (выходил с 1958 года) Форреста Аккермана (1916-2008). Многие эпизоды из этого фильма использовали для своей картины «Путешествие к центру времени» (1967) продюсер Рэй Дорн и телесериала «Туннель времени» (1966) продюсер Ирвин Аллен. Режиссер этого фильма датчанин Иб Мелхиор не стал поднимать шум, так как хотел продолжать работать в Голливуде. Бюджет фильма составил 250 тысяч долларов.
Доп. информация: Русская звуковая дорожка взята с этой раздачи http://rutracker.org/forum/viewtopic.php?t=4504772 автору большое спасибо.
За синхронизацию огромное спасибо Нордер.
При пересборе двд были использованы программы:
PgcDemux - разделение компонентов диска на файлы
Muxman - мультиплексирование и авторинг DVD
VobBlanker - реавторинг DVD

Скрин завершения проекта

Сэмпл: http://sendfile.su/1115049
Тип релиза: DVD9 (Custom)
Контейнер: DVD-Video
Видео: PAL 16:9 (720x576) VBR Auto Pan&Scan
Аудио: Russian (Dolby AC3, 192 Кбит/сек, 2 ch)
Аудио 2: Italiano (Dolby AC3, 384 Кбит/сек, 2 ch)
Аудио 3: English (Dolby AC3, 384 Кбит/сек, 2 ch)

DVDInfo

Size: 4.57 Gb ( 4 792 410 KBytes ) - DVD-9
Enabled regions: 1, 2, 3, 4, 5, 6, 7, 8
VTS_01 :
Play Length: 01:20:08
Video: PAL 16:9 (720x576) VBR, Auto Pan&Scan
Audio:
Russian (Dolby AC3, 2 ch)
Italiano (Dolby AC3, 2 ch)
English (Dolby AC3, 2 ch)
Menu Video:
PAL 4:3 (704x576) VBR
Menu English Language Unit :
Root Menu

MediaInfo

Общее
Полное имя : F:\The Time Travelers_1964\VIDEO_TS\VTS_01_1.VOB
Формат : MPEG-PS
Размер файла : 1024 Мбайт
Продолжительность : 17 м.
Общий поток : 8164 Кбит/сек
Видео
Идентификатор : 224 (0xE0)
Формат : MPEG Video
Версия формата : Version 2
Профиль формата : Main@Main
Параметр BVOP формата : Да
Параметр матрицы формата : По умолчанию
Параметр GOP формата : M=3, N=15
Продолжительность : 17 м.
Максимальный битрейт : 7070 Кбит/сек
Ширина : 720 пикселей
Высота : 576 пикселей
Соотношение сторон : 16:9
Частота кадров : 25,000 кадров/сек
Стандарт вещания : PAL
Цветовое пространство : YUV
Субдискретизация насыщенности : 4:2:0
Битовая глубина : 8 бит
Тип развёртки : Прогрессивная
Метод сжатия : С потерями
Аудио #1
Идентификатор : 189 (0xBD)-128 (0x80)
Формат : AC-3
Формат/Информация : Audio Coding 3
Расширение режима : CM (complete main)
Параметр Endianness формата : Big
Режим смешивания : DVD-Video
Продолжительность : 17 м.
Вид битрейта : Постоянный
Битрейт : 192 Кбит/сек
Каналы : 2 канала
Расположение каналов : Front: L R
Частота : 48,0 КГц
Битовая глубина : 16 бит
Метод сжатия : С потерями
Задержка видео : -80 мс.
Размер потока : 24,1 Мбайт (2%)
Аудио #2
Идентификатор : 189 (0xBD)-129 (0x81)
Формат : AC-3
Формат/Информация : Audio Coding 3
Профиль формата : Dolby Digital
Расширение режима : CM (complete main)
Параметр Endianness формата : Big
Режим смешивания : DVD-Video
Продолжительность : 17 м.
Вид битрейта : Постоянный
Битрейт : 384 Кбит/сек
Каналы : 2 канала
Расположение каналов : Front: L R
Частота : 48,0 КГц
Битовая глубина : 16 бит
Метод сжатия : С потерями
Задержка видео : -80 мс.
Размер потока : 48,2 Мбайт (5%)
Аудио #3
Идентификатор : 189 (0xBD)-130 (0x82)
Формат : AC-3
Формат/Информация : Audio Coding 3
Профиль формата : Dolby Digital
Расширение режима : CM (complete main)
Параметр Endianness формата : Big
Режим смешивания : DVD-Video
Продолжительность : 17 м.
Вид битрейта : Постоянный
Битрейт : 384 Кбит/сек
Каналы : 2 канала
Расположение каналов : Front: L R
Частота : 48,0 КГц
Битовая глубина : 16 бит
Метод сжатия : С потерями
Задержка видео : -80 мс.
Размер потока : 48,2 Мбайт (5%)
Аудио #4
Идентификатор : 204 (0xCC)
Формат : MPEG Audio
Метод сжатия : С потерями
Меню

Постеры

Скриншоты меню


_________________
Показать сообщения:    

Текущее время: Сегодня 16:23

Часовой пояс: GMT



Вы не можете начинать темы
Вы не можете отвечать на сообщения
Вы не можете редактировать свои сообщения
Вы не можете удалять свои сообщения
Вы не можете голосовать в опросах
Вы не можете прикреплять файлы к сообщениям
Вы не можете скачивать файлы