Важное объявление!
У Нас Все раздачи мультитрекерные, при нуле пиров в релизах, можете смело вставать на закачку!
 
Автор Сообщение

HUNTER

Стаж:
4 года 4 месяца
Сообщений:
56848

Репутация: 101

[+] [-]
Вне форума [Профиль] [ЛС]

Лис пустыни / The Desert Fox: The Story of Rommel
Страна: США
Жанр: военный, драма
Год выпуска: 1951
Продолжительность: 01:24:56
Перевод 1: Профессиональный (двухголосый закадровый) Triumph Video
Перевод 2: Одноголосый закадровый
Cубтитры: русские, английские
Оригинальная аудиодорожка: английский
Режиссер: Генри Хэтэуэй / Henry Hathaway
В ролях: Джеймс Мэйсон, Седрик Хардвик, Джессика Тэнди, Лютер Адлер, Эверетт Слоун, Лео Дж. Кэрролл, Джордж МакРиди, Ричард Бун, Эдуард Франц, Филип Альм
Описание: Война, как говорится, «и в Африке — война». Еще неизвестно, что лучше: сорокоградусные морозы под Смоленском или пятидесятиградусная жара под Каиром. Армии строптивого генерала Роммеля утюжат танковыми гусеницами пески Сахары во имя торжества Третьего рейха. Опытный вояка и искусный стратег приготовил своим противникам множество загадок. Тем временем высшее руководство во главе с фюрером раздает из Берлина глупые приказы, заставляющие генерала Роммеля в очередной раз усомниться в здравомыслии Гитлера…
Доп. информация: За приобретение исходника спасибо: alinto, Riderman, atomic dragonfly, Arias, gelom, Кириллка. За работу с субтитрами и дорогой DVO, спасибо DarLeg.
Сохранены оригинальные чаптеры.
Релиз:
Сэмпл: http://sendfile.su/1109354

Тип релиза: BDRemux 1080р
Контейнер: MKV
Видео: MPEG-4 AVC Video / 19600 kbps / 1080р / 25 fps / 16:9 / High Profile 4.1
Аудио 1: Russian / Dolby Digital Audio / 2.0 / 48 kHz / 192 kbps DVO
Аудио 2: Russian / Dolby Digital Audio / 2.0 / 48 kHz / 192 kbps VO
Аудио 3: English / Dolby Digital Audio / 2.0 / 48 kHz / 320 kbps

MediaInfo

Формат : Matroska
Версия формата : Version 4 / Version 2
Размер файла : 12,3 Гбайт
Продолжительность : 1 ч. 24 м.
Режим общего битрейта : Переменный
Общий поток : 20,7 Мбит/сек
Дата кодирования : UTC 2015-04-18 17:18:13
Программа кодирования : mkvmerge v6.2.0 ('Promised Land') built on Apr 28 2013 12:22:01
Библиотека кодирования : libebml v1.3.0 + libmatroska v1.4.0
Видео
Идентификатор : 1
Формат : AVC
Формат/Информация : Advanced Video Codec
Профиль формата : High@L4.1
Параметр CABAC формата : Да
Параметр ReFrames формата : 3 кадра
Идентификатор кодека : V_MPEG4/ISO/AVC
Продолжительность : 1 ч. 24 м.
Вид битрейта : Переменный
Битрейт : 19,6 Мбит/сек
Максимальный битрейт : 25,0 Мбит/сек
Ширина : 1920 пикселей
Высота : 1080 пикселей
Соотношение сторон : 16:9
Режим частоты кадров : Постоянный
Частота кадров : 25,000 кадров/сек
Стандарт вещания : NTSC
Цветовое пространство : YUV
Субдискретизация насыщенности : 4:2:0
Битовая глубина : 8 бит
Тип развёртки : MBAFF
Бит/(Пиксели*Кадры) : 0.378
Размер потока : 11,6 Гбайт (95%)
Default : Да
Forced : Нет
Основные цвета : BT.709
Характеристики трансфера : BT.709
Коэффициенты матрицы : BT.709
Аудио #1
Идентификатор : 2
Формат : AC-3
Формат/Информация : Audio Coding 3
Расширение режима : CM (complete main)
Параметр Endianness формата : Big
Идентификатор кодека : A_AC3
Продолжительность : 1 ч. 24 м.
Вид битрейта : Постоянный
Битрейт : 192 Кбит/сек
Каналы : 2 канала
Расположение каналов : Front: L R
Частота : 48,0 КГц
Битовая глубина : 16 бит
Метод сжатия : С потерями
Размер потока : 117 Мбайт (1%)
Заголовок : DVO (Triumph Video)
Язык : Russian
Default : Да
Forced : Нет
Аудио #2
Идентификатор : 3
Формат : AC-3
Формат/Информация : Audio Coding 3
Расширение режима : CM (complete main)
Параметр Endianness формата : Big
Идентификатор кодека : A_AC3
Продолжительность : 1 ч. 24 м.
Вид битрейта : Постоянный
Битрейт : 192 Кбит/сек
Каналы : 2 канала
Расположение каналов : Front: L R
Частота : 48,0 КГц
Битовая глубина : 16 бит
Метод сжатия : С потерями
Размер потока : 117 Мбайт (1%)
Заголовок : VO
Язык : Russian
Default : Нет
Forced : Нет
Аудио #3
Идентификатор : 4
Формат : AC-3
Формат/Информация : Audio Coding 3
Профиль формата : Dolby Digital
Расширение режима : CM (complete main)
Параметр Endianness формата : Big
Идентификатор кодека : A_AC3
Продолжительность : 1 ч. 24 м.
Вид битрейта : Постоянный
Битрейт : 320 Кбит/сек
Каналы : 2 канала
Расположение каналов : Front: L R
Частота : 48,0 КГц
Битовая глубина : 16 бит
Метод сжатия : С потерями
Размер потока : 194 Мбайт (2%)
Язык : English
Default : Нет
Forced : Нет
Текст #1
Идентификатор : 5
Формат : UTF-8
Идентификатор кодека : S_TEXT/UTF8
Идентификатор кодека/Информация : UTF-8 Plain Text
Язык : Russian
Default : Нет
Forced : Нет
Текст #2
Идентификатор : 6
Формат : UTF-8
Идентификатор кодека : S_TEXT/UTF8
Идентификатор кодека/Информация : UTF-8 Plain Text
Язык : English
Default : Нет
Forced : Нет
Меню
00:00:00.000 : en:00:00:00.000
00:12:03.120 : en:00:12:03.120
00:19:36.840 : en:00:19:36.840
00:30:46.640 : en:00:30:46.640
00:38:32.759 : en:00:38:32.759
00:48:15.480 : en:00:48:15.480
00:57:35.520 : en:00:57:35.520
01:05:46.360 : en:01:05:46.360
01:13:38.480 : en:01:13:38.480
01:21:34.960 : en:01:21:34.960
01:24:37.280 : en:01:24:37.280
01:24:47.880 : en:01:24:47.880

Скриншоты


_________________
Показать сообщения:    

Текущее время: Сегодня 09:33

Часовой пояс: GMT



Вы не можете начинать темы
Вы не можете отвечать на сообщения
Вы не можете редактировать свои сообщения
Вы не можете удалять свои сообщения
Вы не можете голосовать в опросах
Вы не можете прикреплять файлы к сообщениям
Вы не можете скачивать файлы
Наши партнеры: интернет магазин Ивановского трикотажа textilla.ru