Важное объявление!
У Нас Все раздачи мультитрекерные, при нуле пиров в релизах, можете смело вставать на закачку!
 
Автор Сообщение

HUNTER

Стаж:
4 года 4 месяца
Сообщений:
56790

Репутация: 101

[+] [-]
Вне форума [Профиль] [ЛС]

Пункт назначения / The Final Destination
Страна: США
Студия: New Line Cinema
Жанр: ужасы,триллер
Год выпуска: 2000
Продолжительность: 01:37:56
Перевод: Профессиональный (дублированный)
Перевод 2: Профессиональный (многоголосый закадровый)Позитив-мультимедиа
Перевод 3: Авторский (одноголосый закадровый)Гаврилов
Cубтитры: русские,английские
Оригинальная аудиодорожка: английский
Режиссер: Джеймс Вонг / James Wong
В ролях: Девон Сава, Али Лартер, Керр Смит, Тони Тодд, Кристен Клоук, Шон Уильям Скотт, Дэниэл Ройбак, Роджер Гюнвер Смит, Чэд Донелла, Аманда Детмер, Брендан Фер
Описание: Алекс Броунинг наделен удивительной способностью предугадывать, когда, как и где нанесет свой очередной удар старуха-смерть. Страшный дар Алекса проявляется в первый раз в тот момент, когда он отправляется со своим классом в Париж. В салоне самолета он получает грозное предупреждение свыше. Ему видится, как самолет взрывается при взлете. В панике он умоляет пассажиров покинуть самолет. В результате "за бортом" оказываются семь человек. Им недолго приходиться сожалеть о несостоявшейся поездке в Париж: как и предвидел Алекс, самолет, взрывается едва поднявшись в воздух. Чудом оставшиеся в живых пытаются понять, как он сумел предсказать катастрофу. Некоторых притягивает его дар, но большинству он внушает ужас. ФБР не верит ни одному его слову. А Алекса преследуют страшные предзнаменования. Когда оставшиеся в живых пассажиры начинают погибать один за другим, Алекс приходит к выводу, что они не обманули смерть, а лишь взяли у нее отсрочку...
Меню: статичное,озвученное
Сэмпл: http://multi-up.com/560884
Тип релиза: DVD9
Контейнер: DVD-Video
Видео: MPEG Video,NTSC,720*480,VBR,16:9,9000 Кбит/сек,29,970 Кбит/сек
Аудио: Русский(дублированый) AC3,6 каналов, 48,0 КГц, 448 Кбит/сек
Аудио 2: Русский(многоголосый,закадровый) AC3,6 каналов, 48,0 КГц, 448 Кбит/сек
Аудио 3: Русский(авторский,одноголосый) AC3,6 каналов, 48,0 КГц, 448 Кбит/сек
Аудио 4: Английский AC3,6 каналов, 48,0 КГц, 448 Кбит/сек
Формат субтитров: softsub (SRT)

MediaInfo

Общее
Полное имя : E:\Convertirov_ BD_DVD\Punkt_naznachen_1\Punkt_naznachen_1_DVD9_gotov\DVD9_1\VIDEO_TS\VIDEO_TS.BUP
Формат : DVD Video
Профиль формата : Menu
Размер файла : 12,0 Кбайт
Видео
Идентификатор : 224 (0xE0)
Формат : MPEG Video
Версия формата : Version 2
Вид битрейта : Переменный
Ширина : 720 пикс.
Высота : 480 пикс.
Соотношение сторон : 4:3
Частота кадров : 29,970 кадр/сек
Стандарт вещания : NTSC
Метод сжатия : С потерями
Общее
Полное имя : E:\Convertirov_ BD_DVD\Punkt_naznachen_1\Punkt_naznachen_1_DVD9_gotov\DVD9_1\VIDEO_TS\VIDEO_TS.IFO
Формат : DVD Video
Профиль формата : Menu
Размер файла : 12,0 Кбайт
Видео
Идентификатор : 224 (0xE0)
Формат : MPEG Video
Версия формата : Version 2
Вид битрейта : Переменный
Ширина : 720 пикс.
Высота : 480 пикс.
Соотношение сторон : 4:3
Частота кадров : 29,970 кадр/сек
Стандарт вещания : NTSC
Метод сжатия : С потерями
Общее
Полное имя : E:\Convertirov_ BD_DVD\Punkt_naznachen_1\Punkt_naznachen_1_DVD9_gotov\DVD9_1\VIDEO_TS\VIDEO_TS.VOB
Формат : MPEG-PS
Размер файла : 40,0 Кбайт
Продолжительность : 33 мс.
Общий поток : 9930 Кбит/сек
Видео
Идентификатор : 224 (0xE0)
Формат : MPEG Video
Версия формата : Version 2
Профиль формата : Main@Main
Параметр BVOP формата : Нет
Параметр матрицы формата : По умолчанию
Продолжительность : 33 мс.
Вид битрейта : Переменный
Битрейт : 9000 Кбит/сек
Ширина : 720 пикс.
Высота : 480 пикс.
Соотношение сторон : 4:3
Частота кадров : 29,970 кадр/сек
Стандарт вещания : NTSC
Цветовое пространство : YUV
Подвыборка цветности : 4:2:0
Битовая глубина : 8 бит
Тип развёртки : Прогрессивная
Порядок развёртки : Верхнее поле первое
Метод сжатия : С потерями
Бит/(Пиксели*Кадры) : 0.869
Размер потока : 36,3 Кбайт (91%)
Меню
Общее
Полное имя : E:\Convertirov_ BD_DVD\Punkt_naznachen_1\Punkt_naznachen_1_DVD9_gotov\DVD9_1\VIDEO_TS\VTS_01_0.BUP
Формат : DVD Video
Профиль формата : Program
Размер файла : 82,0 Кбайт
Продолжительность : 1 ч. 37 м.
Общий поток : 114 бит/сек
Видео
Идентификатор : 224 (0xE0)
Формат : MPEG Video
Версия формата : Version 2
Продолжительность : 1 ч. 37 м.
Вид битрейта : Переменный
Ширина : 720 пикс.
Высота : 480 пикс.
Соотношение сторон : 16:9
Частота кадров : 29,970 кадр/сек
Стандарт вещания : NTSC
Метод сжатия : С потерями
Аудио #1
Идентификатор : 128 (0x80)
Формат : AC-3
Формат/Информация : Audio Coding 3
Продолжительность : 1 ч. 37 м.
Каналы : 6 каналов
Частота : 48,0 КГц
Метод сжатия : С потерями
Язык : Russian
Аудио #2
Идентификатор : 129 (0x81)
Формат : AC-3
Формат/Информация : Audio Coding 3
Продолжительность : 1 ч. 37 м.
Каналы : 6 каналов
Частота : 48,0 КГц
Метод сжатия : С потерями
Язык : Russian
Аудио #3
Идентификатор : 130 (0x82)
Формат : AC-3
Формат/Информация : Audio Coding 3
Продолжительность : 1 ч. 37 м.
Каналы : 6 каналов
Частота : 48,0 КГц
Метод сжатия : С потерями
Язык : Russian
Аудио #4
Идентификатор : 131 (0x83)
Формат : AC-3
Формат/Информация : Audio Coding 3
Продолжительность : 1 ч. 37 м.
Каналы : 6 каналов
Частота : 48,0 КГц
Метод сжатия : С потерями
Язык : English
Текст #1
Идентификатор : 32 (0x20)
Формат : RLE
Формат/Информация : Run-length encoding
Битовая глубина : 2 бит
Язык : Russian
Текст #2
Идентификатор : 33 (0x21)
Формат : RLE
Формат/Информация : Run-length encoding
Битовая глубина : 2 бит
Язык : English
Меню
Продолжительность : 1 ч. 37 м.
00:00:00.000 : Chapter 1
00:03:00.900 : Chapter 2
00:09:47.300 : Chapter 3
00:15:40.633 : Chapter 4
00:19:39.966 : Chapter 5
00:26:50.699 : Chapter 6
00:31:40.365 : Chapter 7
00:38:49.931 : Chapter 8
00:41:58.431 : Chapter 9
00:45:55.297 : Chapter 10
00:51:35.863 : Chapter 11
01:02:03.096 : Chapter 12
01:06:38.329 : Chapter 13
01:14:16.295 : Chapter 14
01:17:32.561 : Chapter 15
01:20:12.094 : Chapter 16
01:27:34.160 : Chapter 17
01:32:17.993 : Chapter 18
List (Audio) : 0 / 1 / 2 / 3
List (Subtitles 4/3) : 0 / 1
List (Subtitles Wide) : 0 / 1
List (Subtitles Letterbox) : 0 / 1
List (Subtitles Pan&Scan) : 0 / 1
Общее
Полное имя : E:\Convertirov_ BD_DVD\Punkt_naznachen_1\Punkt_naznachen_1_DVD9_gotov\DVD9_1\VIDEO_TS\VTS_01_0.IFO
Формат : DVD Video
Профиль формата : Program
Размер файла : 82,0 Кбайт
Продолжительность : 1 ч. 37 м.
Общий поток : 114 бит/сек
Видео
Идентификатор : 224 (0xE0)
Формат : MPEG Video
Версия формата : Version 2
Продолжительность : 1 ч. 37 м.
Вид битрейта : Переменный
Ширина : 720 пикс.
Высота : 480 пикс.
Соотношение сторон : 16:9
Частота кадров : 29,970 кадр/сек
Стандарт вещания : NTSC
Метод сжатия : С потерями
Аудио #1
Идентификатор : 128 (0x80)
Формат : AC-3
Формат/Информация : Audio Coding 3
Продолжительность : 1 ч. 37 м.
Каналы : 6 каналов
Частота : 48,0 КГц
Метод сжатия : С потерями
Язык : Russian
Аудио #2
Идентификатор : 129 (0x81)
Формат : AC-3
Формат/Информация : Audio Coding 3
Продолжительность : 1 ч. 37 м.
Каналы : 6 каналов
Частота : 48,0 КГц
Метод сжатия : С потерями
Язык : Russian
Аудио #3
Идентификатор : 130 (0x82)
Формат : AC-3
Формат/Информация : Audio Coding 3
Продолжительность : 1 ч. 37 м.
Каналы : 6 каналов
Частота : 48,0 КГц
Метод сжатия : С потерями
Язык : Russian
Аудио #4
Идентификатор : 131 (0x83)
Формат : AC-3
Формат/Информация : Audio Coding 3
Продолжительность : 1 ч. 37 м.
Каналы : 6 каналов
Частота : 48,0 КГц
Метод сжатия : С потерями
Язык : English
Текст #1
Идентификатор : 32 (0x20)
Формат : RLE
Формат/Информация : Run-length encoding
Битовая глубина : 2 бит
Язык : Russian
Текст #2
Идентификатор : 33 (0x21)
Формат : RLE
Формат/Информация : Run-length encoding
Битовая глубина : 2 бит
Язык : English
Меню
Продолжительность : 1 ч. 37 м.
00:00:00.000 : Chapter 1
00:03:00.900 : Chapter 2
00:09:47.300 : Chapter 3
00:15:40.633 : Chapter 4
00:19:39.966 : Chapter 5
00:26:50.699 : Chapter 6
00:31:40.365 : Chapter 7
00:38:49.931 : Chapter 8
00:41:58.431 : Chapter 9
00:45:55.297 : Chapter 10
00:51:35.863 : Chapter 11
01:02:03.096 : Chapter 12
01:06:38.329 : Chapter 13
01:14:16.295 : Chapter 14
01:17:32.561 : Chapter 15
01:20:12.094 : Chapter 16
01:27:34.160 : Chapter 17
01:32:17.993 : Chapter 18
List (Audio) : 0 / 1 / 2 / 3
List (Subtitles 4/3) : 0 / 1
List (Subtitles Wide) : 0 / 1
List (Subtitles Letterbox) : 0 / 1
List (Subtitles Pan&Scan) : 0 / 1
Общее
Полное имя : E:\Convertirov_ BD_DVD\Punkt_naznachen_1\Punkt_naznachen_1_DVD9_gotov\DVD9_1\VIDEO_TS\VTS_01_0.VOB
Формат : MPEG-PS
Размер файла : 92,2 Мбайт
Продолжительность : 5 м. 15 с.
Общий поток : 2454 Кбит/сек
Видео
Идентификатор : 224 (0xE0)
Формат : MPEG Video
Версия формата : Version 2
Профиль формата : Main@Main
Параметр BVOP формата : Нет
Параметр матрицы формата : По умолчанию
Продолжительность : 5 м. 15 с.
Вид битрейта : Переменный
Битрейт : 1957 Кбит/сек
Номинальный битрейт : 9000 Кбит/сек
Ширина : 720 пикс.
Высота : 480 пикс.
Соотношение сторон : 16:9
Частота кадров : 29,970 кадр/сек
Стандарт вещания : NTSC
Цветовое пространство : YUV
Подвыборка цветности : 4:2:0
Битовая глубина : 8 бит
Тип развёртки : Прогрессивная
Порядок развёртки : Верхнее поле первое
Метод сжатия : С потерями
Бит/(Пиксели*Кадры) : 0.189
Размер потока : 73,5 Мбайт (80%)
Аудио
Идентификатор : 189 (0xBD)-128 (0x80)
Формат : AC-3
Формат/Информация : Audio Coding 3
Расширение режима : CM (complete main)
Режим смешивания : DVD-Video
Продолжительность : 5 м. 15 с.
Вид битрейта : Постоянный
Битрейт : 448 Кбит/сек
Каналы : 6 каналов
Расположение каналов : Front: L C R, Side: L R, LFE
Частота : 48,0 КГц
Битовая глубина : 16 бит
Метод сжатия : С потерями
Размер потока : 16,8 Мбайт (18%)
Текст #1
Идентификатор : 189 (0xBD)-32 (0x20)
Формат : RLE
Формат/Информация : Run-length encoding
Режим смешивания : DVD-Video
Текст #2
Идентификатор : 189 (0xBD)-33 (0x21)
Формат : RLE
Формат/Информация : Run-length encoding
Режим смешивания : DVD-Video
Текст #3
Идентификатор : 189 (0xBD)-34 (0x22)
Формат : RLE
Формат/Информация : Run-length encoding
Режим смешивания : DVD-Video
Меню
Общее
Полное имя : E:\Convertirov_ BD_DVD\Punkt_naznachen_1\Punkt_naznachen_1_DVD9_gotov\DVD9_1\VIDEO_TS\VTS_01_1.VOB
Формат : MPEG-PS
Размер файла : 1001 Мбайт
Продолжительность : 14 м.
Общий поток : 9476 Кбит/сек
Видео
Идентификатор : 224 (0xE0)
Формат : MPEG Video
Версия формата : Version 2
Профиль формата : Main@Main
Параметр BVOP формата : Да
Параметр матрицы формата : По умолчанию
Продолжительность : 14 м.
Вид битрейта : Переменный
Битрейт : 7800 Кбит/сек
Ширина : 720 пикс.
Высота : 480 пикс.
Соотношение сторон : 16:9
Частота кадров : 23,976 кадр/сек
Стандарт вещания : NTSC
Цветовое пространство : YUV
Подвыборка цветности : 4:2:0
Битовая глубина : 8 бит
Тип развёртки : Прогрессивная
Порядок развёртки : 2:3 Pulldown
Метод сжатия : С потерями
Бит/(Пиксели*Кадры) : 0.941
Размер потока : 792 Мбайт (79%)
Аудио #1
Идентификатор : 189 (0xBD)-128 (0x80)
Формат : AC-3
Формат/Информация : Audio Coding 3
Расширение режима : CM (complete main)
Режим смешивания : DVD-Video
Продолжительность : 14 м.
Вид битрейта : Постоянный
Битрейт : 448 Кбит/сек
Каналы : 6 каналов
Расположение каналов : Front: L C R, Side: L R, LFE
Частота : 48,0 КГц
Битовая глубина : 16 бит
Метод сжатия : С потерями
Размер потока : 47,3 Мбайт (5%)
Аудио #2
Идентификатор : 189 (0xBD)-129 (0x81)
Формат : AC-3
Формат/Информация : Audio Coding 3
Расширение режима : CM (complete main)
Режим смешивания : DVD-Video
Продолжительность : 14 м.
Вид битрейта : Постоянный
Битрейт : 448 Кбит/сек
Каналы : 6 каналов
Расположение каналов : Front: L C R, Side: L R, LFE
Частота : 48,0 КГц
Битовая глубина : 16 бит
Метод сжатия : С потерями
Размер потока : 47,3 Мбайт (5%)
Аудио #3
Идентификатор : 189 (0xBD)-130 (0x82)
Формат : AC-3
Формат/Информация : Audio Coding 3
Расширение режима : CM (complete main)
Режим смешивания : DVD-Video
Продолжительность : 14 м.
Вид битрейта : Постоянный
Битрейт : 448 Кбит/сек
Каналы : 6 каналов
Расположение каналов : Front: L C R, Side: L R, LFE
Частота : 48,0 КГц
Битовая глубина : 16 бит
Метод сжатия : С потерями
Размер потока : 47,3 Мбайт (5%)
Аудио #4
Идентификатор : 189 (0xBD)-131 (0x83)
Формат : AC-3
Формат/Информация : Audio Coding 3
Расширение режима : CM (complete main)
Режим смешивания : DVD-Video
Продолжительность : 14 м.
Вид битрейта : Постоянный
Битрейт : 448 Кбит/сек
Каналы : 6 каналов
Расположение каналов : Front: L C R, Side: L R, LFE
Частота : 48,0 КГц
Битовая глубина : 16 бит
Метод сжатия : С потерями
Размер потока : 47,3 Мбайт (5%)
Меню
Общее
Полное имя : E:\Convertirov_ BD_DVD\Punkt_naznachen_1\Punkt_naznachen_1_DVD9_gotov\DVD9_1\VIDEO_TS\VTS_01_2.VOB
Формат : MPEG-PS
Размер файла : 1000 Мбайт
Продолжительность : 14 м.
Общий поток : 9336 Кбит/сек
Видео
Идентификатор : 224 (0xE0)
Формат : MPEG Video
Версия формата : Version 2
Профиль формата : Main@Main
Параметр BVOP формата : Да
Параметр матрицы формата : По умолчанию
Продолжительность : 14 м.
Вид битрейта : Переменный
Битрейт : 7358 Кбит/сек
Номинальный битрейт : 7800 Кбит/сек
Ширина : 720 пикс.
Высота : 480 пикс.
Соотношение сторон : 16:9
Частота кадров : 23,976 кадр/сек
Стандарт вещания : NTSC
Цветовое пространство : YUV
Подвыборка цветности : 4:2:0
Битовая глубина : 8 бит
Тип развёртки : Прогрессивная
Порядок развёртки : 2:3 Pulldown
Метод сжатия : С потерями
Бит/(Пиксели*Кадры) : 0.888
Размер потока : 788 Мбайт (79%)
Аудио #1
Идентификатор : 189 (0xBD)-128 (0x80)
Формат : AC-3
Формат/Информация : Audio Coding 3
Расширение режима : CM (complete main)
Режим смешивания : DVD-Video
Продолжительность : 14 м.
Вид битрейта : Постоянный
Битрейт : 448 Кбит/сек
Каналы : 6 каналов
Расположение каналов : Front: L C R, Side: L R, LFE
Частота : 48,0 КГц
Битовая глубина : 16 бит
Метод сжатия : С потерями
Задержка видео : -272 мс.
Размер потока : 48,0 Мбайт (5%)
Аудио #2
Идентификатор : 189 (0xBD)-129 (0x81)
Формат : AC-3
Формат/Информация : Audio Coding 3
Расширение режима : CM (complete main)
Режим смешивания : DVD-Video
Продолжительность : 14 м.
Вид битрейта : Постоянный
Битрейт : 448 Кбит/сек
Каналы : 6 каналов
Расположение каналов : Front: L C R, Side: L R, LFE
Частота : 48,0 КГц
Битовая глубина : 16 бит
Метод сжатия : С потерями
Задержка видео : -272 мс.
Размер потока : 48,0 Мбайт (5%)
Аудио #3
Идентификатор : 189 (0xBD)-130 (0x82)
Формат : AC-3
Формат/Информация : Audio Coding 3
Расширение режима : CM (complete main)
Режим смешивания : DVD-Video
Продолжительность : 14 м.
Вид битрейта : Постоянный
Битрейт : 448 Кбит/сек
Каналы : 6 каналов
Расположение каналов : Front: L C R, Side: L R, LFE
Частота : 48,0 КГц
Битовая глубина : 16 бит
Метод сжатия : С потерями
Задержка видео : -272 мс.
Размер потока : 48,0 Мбайт (5%)
Аудио #4
Идентификатор : 189 (0xBD)-131 (0x83)
Формат : AC-3
Формат/Информация : Audio Coding 3
Расширение режима : CM (complete main)
Режим смешивания : DVD-Video
Продолжительность : 14 м.
Вид битрейта : Постоянный
Битрейт : 448 Кбит/сек
Каналы : 6 каналов
Расположение каналов : Front: L C R, Side: L R, LFE
Частота : 48,0 КГц
Битовая глубина : 16 бит
Метод сжатия : С потерями
Задержка видео : -272 мс.
Размер потока : 48,0 Мбайт (5%)
Меню
Общее
Полное имя : E:\Convertirov_ BD_DVD\Punkt_naznachen_1\Punkt_naznachen_1_DVD9_gotov\DVD9_1\VIDEO_TS\VTS_01_3.VOB
Формат : MPEG-PS
Размер файла : 1000 Мбайт
Продолжительность : 14 м.
Общий поток : 9598 Кбит/сек
Видео
Идентификатор : 224 (0xE0)
Формат : MPEG Video
Версия формата : Version 2
Профиль формата : Main@Main
Параметр BVOP формата : Да
Параметр матрицы формата : По умолчанию
Параметры GOP формата : M=3, N=12
Продолжительность : 14 м.
Вид битрейта : Переменный
Битрейт : 7800 Кбит/сек
Ширина : 720 пикс.
Высота : 480 пикс.
Соотношение сторон : 16:9
Частота кадров : 23,976 кадр/сек
Стандарт вещания : NTSC
Цветовое пространство : YUV
Подвыборка цветности : 4:2:0
Битовая глубина : 8 бит
Тип развёртки : Прогрессивная
Порядок развёртки : 2:3 Pulldown
Метод сжатия : С потерями
Бит/(Пиксели*Кадры) : 0.941
Размер потока : 793 Мбайт (79%)
Аудио #1
Идентификатор : 189 (0xBD)-128 (0x80)
Формат : AC-3
Формат/Информация : Audio Coding 3
Расширение режима : CM (complete main)
Режим смешивания : DVD-Video
Продолжительность : 14 м.
Вид битрейта : Постоянный
Битрейт : 448 Кбит/сек
Каналы : 6 каналов
Расположение каналов : Front: L C R, Side: L R, LFE
Частота : 48,0 КГц
Битовая глубина : 16 бит
Метод сжатия : С потерями
Задержка видео : -283 мс.
Размер потока : 46,7 Мбайт (5%)
Аудио #2
Идентификатор : 189 (0xBD)-129 (0x81)
Формат : AC-3
Формат/Информация : Audio Coding 3
Расширение режима : CM (complete main)
Режим смешивания : DVD-Video
Продолжительность : 14 м.
Вид битрейта : Постоянный
Битрейт : 448 Кбит/сек
Каналы : 6 каналов
Расположение каналов : Front: L C R, Side: L R, LFE
Частота : 48,0 КГц
Битовая глубина : 16 бит
Метод сжатия : С потерями
Задержка видео : -283 мс.
Размер потока : 46,7 Мбайт (5%)
Аудио #3
Идентификатор : 189 (0xBD)-130 (0x82)
Формат : AC-3
Формат/Информация : Audio Coding 3
Расширение режима : CM (complete main)
Режим смешивания : DVD-Video
Продолжительность : 14 м.
Вид битрейта : Постоянный
Битрейт : 448 Кбит/сек
Каналы : 6 каналов
Расположение каналов : Front: L C R, Side: L R, LFE
Частота : 48,0 КГц
Битовая глубина : 16 бит
Метод сжатия : С потерями
Задержка видео : -283 мс.
Размер потока : 46,7 Мбайт (5%)
Аудио #4
Идентификатор : 189 (0xBD)-131 (0x83)
Формат : AC-3
Формат/Информация : Audio Coding 3
Расширение режима : CM (complete main)
Режим смешивания : DVD-Video
Продолжительность : 14 м.
Вид битрейта : Постоянный
Битрейт : 448 Кбит/сек
Каналы : 6 каналов
Расположение каналов : Front: L C R, Side: L R, LFE
Частота : 48,0 КГц
Битовая глубина : 16 бит
Метод сжатия : С потерями
Задержка видео : -283 мс.
Размер потока : 46,7 Мбайт (5%)
Текст #1
Идентификатор : 189 (0xBD)-32 (0x20)
Формат : RLE
Формат/Информация : Run-length encoding
Режим смешивания : DVD-Video
Продолжительность : 14 м.
Задержка видео : 1 с. 769 мс.
Текст #2
Идентификатор : 189 (0xBD)-33 (0x21)
Формат : RLE
Формат/Информация : Run-length encoding
Режим смешивания : DVD-Video
Продолжительность : 14 м.
Задержка видео : 1 с. 735 мс.
Меню
Общее
Полное имя : E:\Convertirov_ BD_DVD\Punkt_naznachen_1\Punkt_naznachen_1_DVD9_gotov\DVD9_1\VIDEO_TS\VTS_01_4.VOB
Формат : MPEG-PS
Размер файла : 1000 Мбайт
Продолжительность : 14 м.
Общий поток : 9471 Кбит/сек
Видео
Идентификатор : 224 (0xE0)
Формат : MPEG Video
Версия формата : Version 2
Профиль формата : Main@Main
Параметр BVOP формата : Да
Параметр матрицы формата : По умолчанию
Параметры GOP формата : M=3, N=12
Продолжительность : 14 м.
Вид битрейта : Переменный
Битрейт : 7800 Кбит/сек
Ширина : 720 пикс.
Высота : 480 пикс.
Соотношение сторон : 16:9
Частота кадров : 23,976 кадр/сек
Стандарт вещания : NTSC
Цветовое пространство : YUV
Подвыборка цветности : 4:2:0
Битовая глубина : 8 бит
Тип развёртки : Прогрессивная
Порядок развёртки : 2:3 Pulldown
Метод сжатия : С потерями
Бит/(Пиксели*Кадры) : 0.941
Размер потока : 791 Мбайт (79%)
Аудио #1
Идентификатор : 189 (0xBD)-128 (0x80)
Формат : AC-3
Формат/Информация : Audio Coding 3
Расширение режима : CM (complete main)
Режим смешивания : DVD-Video
Продолжительность : 14 м.
Вид битрейта : Постоянный
Битрейт : 448 Кбит/сек
Каналы : 6 каналов
Расположение каналов : Front: L C R, Side: L R, LFE
Частота : 48,0 КГц
Битовая глубина : 16 бит
Метод сжатия : С потерями
Задержка видео : -281 мс.
Размер потока : 47,3 Мбайт (5%)
Аудио #2
Идентификатор : 189 (0xBD)-129 (0x81)
Формат : AC-3
Формат/Информация : Audio Coding 3
Расширение режима : CM (complete main)
Режим смешивания : DVD-Video
Продолжительность : 14 м.
Вид битрейта : Постоянный
Битрейт : 448 Кбит/сек
Каналы : 6 каналов
Расположение каналов : Front: L C R, Side: L R, LFE
Частота : 48,0 КГц
Битовая глубина : 16 бит
Метод сжатия : С потерями
Задержка видео : -281 мс.
Размер потока : 47,3 Мбайт (5%)
Аудио #3
Идентификатор : 189 (0xBD)-130 (0x82)
Формат : AC-3
Формат/Информация : Audio Coding 3
Расширение режима : CM (complete main)
Режим смешивания : DVD-Video
Продолжительность : 14 м.
Вид битрейта : Постоянный
Битрейт : 448 Кбит/сек
Каналы : 6 каналов
Расположение каналов : Front: L C R, Side: L R, LFE
Частота : 48,0 КГц
Битовая глубина : 16 бит
Метод сжатия : С потерями
Задержка видео : -281 мс.
Размер потока : 47,3 Мбайт (5%)
Аудио #4
Идентификатор : 189 (0xBD)-131 (0x83)
Формат : AC-3
Формат/Информация : Audio Coding 3
Расширение режима : CM (complete main)
Режим смешивания : DVD-Video
Продолжительность : 14 м.
Вид битрейта : Постоянный
Битрейт : 448 Кбит/сек
Каналы : 6 каналов
Расположение каналов : Front: L C R, Side: L R, LFE
Частота : 48,0 КГц
Битовая глубина : 16 бит
Метод сжатия : С потерями
Задержка видео : -281 мс.
Размер потока : 47,3 Мбайт (5%)
Меню
Общее
Полное имя : E:\Convertirov_ BD_DVD\Punkt_naznachen_1\Punkt_naznachen_1_DVD9_gotov\DVD9_1\VIDEO_TS\VTS_01_5.VOB
Формат : MPEG-PS
Размер файла : 999 Мбайт
Продолжительность : 14 м.
Общий поток : 9450 Кбит/сек
Видео
Идентификатор : 224 (0xE0)
Формат : MPEG Video
Версия формата : Version 2
Профиль формата : Main@Main
Параметр BVOP формата : Да
Параметр матрицы формата : По умолчанию
Продолжительность : 14 м.
Вид битрейта : Переменный
Битрейт : 7800 Кбит/сек
Ширина : 720 пикс.
Высота : 480 пикс.
Соотношение сторон : 16:9
Частота кадров : 23,976 кадр/сек
Стандарт вещания : NTSC
Цветовое пространство : YUV
Подвыборка цветности : 4:2:0
Битовая глубина : 8 бит
Тип развёртки : Прогрессивная
Порядок развёртки : 2:3 Pulldown
Метод сжатия : С потерями
Бит/(Пиксели*Кадры) : 0.941
Размер потока : 790 Мбайт (79%)
Аудио #1
Идентификатор : 189 (0xBD)-128 (0x80)
Формат : AC-3
Формат/Информация : Audio Coding 3
Расширение режима : CM (complete main)
Режим смешивания : DVD-Video
Продолжительность : 14 м.
Вид битрейта : Постоянный
Битрейт : 448 Кбит/сек
Каналы : 6 каналов
Расположение каналов : Front: L C R, Side: L R, LFE
Частота : 48,0 КГц
Битовая глубина : 16 бит
Метод сжатия : С потерями
Задержка видео : -254 мс.
Размер потока : 47,4 Мбайт (5%)
Аудио #2
Идентификатор : 189 (0xBD)-129 (0x81)
Формат : AC-3
Формат/Информация : Audio Coding 3
Расширение режима : CM (complete main)
Режим смешивания : DVD-Video
Продолжительность : 14 м.
Вид битрейта : Постоянный
Битрейт : 448 Кбит/сек
Каналы : 6 каналов
Расположение каналов : Front: L C R, Side: L R, LFE
Частота : 48,0 КГц
Битовая глубина : 16 бит
Метод сжатия : С потерями
Задержка видео : -254 мс.
Размер потока : 47,4 Мбайт (5%)
Аудио #3
Идентификатор : 189 (0xBD)-130 (0x82)
Формат : AC-3
Формат/Информация : Audio Coding 3
Расширение режима : CM (complete main)
Режим смешивания : DVD-Video
Продолжительность : 14 м.
Вид битрейта : Постоянный
Битрейт : 448 Кбит/сек
Каналы : 6 каналов
Расположение каналов : Front: L C R, Side: L R, LFE
Частота : 48,0 КГц
Битовая глубина : 16 бит
Метод сжатия : С потерями
Задержка видео : -254 мс.
Размер потока : 47,4 Мбайт (5%)
Аудио #4
Идентификатор : 189 (0xBD)-131 (0x83)
Формат : AC-3
Формат/Информация : Audio Coding 3
Расширение режима : CM (complete main)
Режим смешивания : DVD-Video
Продолжительность : 14 м.
Вид битрейта : Постоянный
Битрейт : 448 Кбит/сек
Каналы : 6 каналов
Расположение каналов : Front: L C R, Side: L R, LFE
Частота : 48,0 КГц
Битовая глубина : 16 бит
Метод сжатия : С потерями
Задержка видео : -254 мс.
Размер потока : 47,4 Мбайт (5%)
Текст #1
Идентификатор : 189 (0xBD)-32 (0x20)
Формат : RLE
Формат/Информация : Run-length encoding
Режим смешивания : DVD-Video
Текст #2
Идентификатор : 189 (0xBD)-33 (0x21)
Формат : RLE
Формат/Информация : Run-length encoding
Режим смешивания : DVD-Video
Меню
Общее
Полное имя : E:\Convertirov_ BD_DVD\Punkt_naznachen_1\Punkt_naznachen_1_DVD9_gotov\DVD9_1\VIDEO_TS\VTS_01_6.VOB
Формат : MPEG-PS
Размер файла : 1000 Мбайт
Продолжительность : 14 м.
Общий поток : 9569 Кбит/сек
Видео
Идентификатор : 224 (0xE0)
Формат : MPEG Video
Версия формата : Version 2
Профиль формата : Main@Main
Параметр BVOP формата : Да
Параметр матрицы формата : По умолчанию
Параметры GOP формата : M=3, N=12
Продолжительность : 14 м.
Вид битрейта : Переменный
Битрейт : 7800 Кбит/сек
Ширина : 720 пикс.
Высота : 480 пикс.
Соотношение сторон : 16:9
Частота кадров : 23,976 кадр/сек
Стандарт вещания : NTSC
Цветовое пространство : YUV
Подвыборка цветности : 4:2:0
Битовая глубина : 8 бит
Тип развёртки : Прогрессивная
Порядок развёртки : 2:3 Pulldown
Метод сжатия : С потерями
Бит/(Пиксели*Кадры) : 0.941
Размер потока : 793 Мбайт (79%)
Аудио #1
Идентификатор : 189 (0xBD)-128 (0x80)
Формат : AC-3
Формат/Информация : Audio Coding 3
Расширение режима : CM (complete main)
Режим смешивания : DVD-Video
Продолжительность : 14 м.
Вид битрейта : Постоянный
Битрейт : 448 Кбит/сек
Каналы : 6 каналов
Расположение каналов : Front: L C R, Side: L R, LFE
Частота : 48,0 КГц
Битовая глубина : 16 бит
Метод сжатия : С потерями
Задержка видео : -259 мс.
Размер потока : 46,8 Мбайт (5%)
Аудио #2
Идентификатор : 189 (0xBD)-129 (0x81)
Формат : AC-3
Формат/Информация : Audio Coding 3
Расширение режима : CM (complete main)
Режим смешивания : DVD-Video
Продолжительность : 14 м.
Вид битрейта : Постоянный
Битрейт : 448 Кбит/сек
Каналы : 6 каналов
Расположение каналов : Front: L C R, Side: L R, LFE
Частота : 48,0 КГц
Битовая глубина : 16 бит
Метод сжатия : С потерями
Задержка видео : -259 мс.
Размер потока : 46,8 Мбайт (5%)
Аудио #3
Идентификатор : 189 (0xBD)-130 (0x82)
Формат : AC-3
Формат/Информация : Audio Coding 3
Расширение режима : CM (complete main)
Режим смешивания : DVD-Video
Продолжительность : 14 м.
Вид битрейта : Постоянный
Битрейт : 448 Кбит/сек
Каналы : 6 каналов
Расположение каналов : Front: L C R, Side: L R, LFE
Частота : 48,0 КГц
Битовая глубина : 16 бит
Метод сжатия : С потерями
Задержка видео : -259 мс.
Размер потока : 46,8 Мбайт (5%)
Аудио #4
Идентификатор : 189 (0xBD)-131 (0x83)
Формат : AC-3
Формат/Информация : Audio Coding 3
Расширение режима : CM (complete main)
Режим смешивания : DVD-Video
Продолжительность : 14 м.
Вид битрейта : Постоянный
Битрейт : 448 Кбит/сек
Каналы : 6 каналов
Расположение каналов : Front: L C R, Side: L R, LFE
Частота : 48,0 КГц
Битовая глубина : 16 бит
Метод сжатия : С потерями
Задержка видео : -259 мс.
Размер потока : 46,8 Мбайт (5%)
Текст
Идентификатор : 189 (0xBD)-33 (0x21)
Формат : RLE
Формат/Информация : Run-length encoding
Режим смешивания : DVD-Video
Задержка видео : 1 с. 802 мс.
Меню
Общее
Полное имя : E:\Convertirov_ BD_DVD\Punkt_naznachen_1\Punkt_naznachen_1_DVD9_gotov\DVD9_1\VIDEO_TS\VTS_01_7.VOB
Формат : MPEG-PS
Размер файла : 660 Мбайт
Продолжительность : 9 м. 33 с.
Общий поток : 9646 Кбит/сек
Видео
Идентификатор : 224 (0xE0)
Формат : MPEG Video
Версия формата : Version 2
Профиль формата : Main@Main
Параметр BVOP формата : Да
Параметр матрицы формата : По умолчанию
Параметры GOP формата : M=3, N=12
Продолжительность : 9 м. 33 с.
Вид битрейта : Переменный
Битрейт : 7800 Кбит/сек
Ширина : 720 пикс.
Высота : 480 пикс.
Соотношение сторон : 16:9
Частота кадров : 23,976 кадр/сек
Стандарт вещания : NTSC
Цветовое пространство : YUV
Подвыборка цветности : 4:2:0
Битовая глубина : 8 бит
Тип развёртки : Прогрессивная
Порядок развёртки : 2:3 Pulldown
Метод сжатия : С потерями
Бит/(Пиксели*Кадры) : 0.941
Размер потока : 524 Мбайт (79%)
Аудио #1
Идентификатор : 189 (0xBD)-128 (0x80)
Формат : AC-3
Формат/Информация : Audio Coding 3
Расширение режима : CM (complete main)
Режим смешивания : DVD-Video
Продолжительность : 9 м. 31 с.
Вид битрейта : Постоянный
Битрейт : 448 Кбит/сек
Каналы : 6 каналов
Расположение каналов : Front: L C R, Side: L R, LFE
Частота : 48,0 КГц
Битовая глубина : 16 бит
Метод сжатия : С потерями
Задержка видео : -273 мс.
Размер потока : 30,5 Мбайт (5%)
Аудио #2
Идентификатор : 189 (0xBD)-129 (0x81)
Формат : AC-3
Формат/Информация : Audio Coding 3
Расширение режима : CM (complete main)
Режим смешивания : DVD-Video
Продолжительность : 9 м. 33 с.
Вид битрейта : Постоянный
Битрейт : 448 Кбит/сек
Каналы : 6 каналов
Расположение каналов : Front: L C R, Side: L R, LFE
Частота : 48,0 КГц
Битовая глубина : 16 бит
Метод сжатия : С потерями
Задержка видео : -273 мс.
Размер потока : 30,6 Мбайт (5%)
Аудио #3
Идентификатор : 189 (0xBD)-130 (0x82)
Формат : AC-3
Формат/Информация : Audio Coding 3
Расширение режима : CM (complete main)
Режим смешивания : DVD-Video
Продолжительность : 9 м. 33 с.
Вид битрейта : Постоянный
Битрейт : 448 Кбит/сек
Каналы : 6 каналов
Расположение каналов : Front: L C R, Side: L R, LFE
Частота : 48,0 КГц
Битовая глубина : 16 бит
Метод сжатия : С потерями
Задержка видео : -273 мс.
Размер потока : 30,6 Мбайт (5%)
Аудио #4
Идентификатор : 189 (0xBD)-131 (0x83)
Формат : AC-3
Формат/Информация : Audio Coding 3
Расширение режима : CM (complete main)
Режим смешивания : DVD-Video
Продолжительность : 9 м. 33 с.
Вид битрейта : Постоянный
Битрейт : 448 Кбит/сек
Каналы : 6 каналов
Расположение каналов : Front: L C R, Side: L R, LFE
Частота : 48,0 КГц
Битовая глубина : 16 бит
Метод сжатия : С потерями
Задержка видео : -273 мс.
Размер потока : 30,6 Мбайт (5%)
Доп. информация: Источник- BDRemux. БОЛЬШОЕ СПАСИБО ЗА НЕГО Beonikol.

Используемый софт

Видео
ProCoder 3 - конвертация видео
AviSynth - обработка видео
DGDecodeNV - индексирование
Программы для разборки ремукса
tsMuxeR - разборка ремукса
Работа со звуком
TranzcodeGUI - извлечение WAV
Sonic Foundry Soft Encode - конвертация из формата WAV в AC3
Работа с меню и реавторинг
DVD-lab PRO 2 - реавторинг диска
Adobe Photoshop - редактирование меню

Скрипт

LoadPlugin("C:\Program Files\Progr_convert_ BD_DVD\DGDecodeNV\DGDecodeNV.dll")
DGSource("E:\Convertirov_ BD_DVD\Punkt_naznachen_1\Punkt_naznachen_1_temp\DGIndexNV\Final Destination_1.dgi") #если в исходнике отсутствуют артефакты
LoadPlugin("C:\Program Files\Progr_convert_ BD_DVD\AutoYUY2\AutoYUY2.dll") #более медленный, но качественный аналог ConvertToYUY2()
AutoYUY2()
LoadPlugin("C:\Program Files\Progr_convert_ BD_DVD\ColorMatrix\ColorMatrix.dll")
ColorMatrix(mode="Rec.709->Rec.601", inputFR=false, clamp=0) #корректировка цветовой шкалы, если проверка показывает 16-235
#AssumeFPS("ntsc_film")
BicubicResize(720, 480, 0, 0.5) #ресайз методом Catmull-Rom spline
AddBorders (0,0,0,0) #bbb=00

Скриншоты программ и настроек

Точка перехода

Скриншоты меню

Скриншоты


_________________
Показать сообщения:    

Текущее время: Сегодня 14:06

Часовой пояс: GMT



Вы не можете начинать темы
Вы не можете отвечать на сообщения
Вы не можете редактировать свои сообщения
Вы не можете удалять свои сообщения
Вы не можете голосовать в опросах
Вы не можете прикреплять файлы к сообщениям
Вы не можете скачивать файлы