Важное объявление!
У Нас Все раздачи мультитрекерные, при нуле пиров в релизах, можете смело вставать на закачку!
 
Автор Сообщение

HUNTER

Стаж:
4 года 4 месяца
Сообщений:
56722

Репутация: 101

[+] [-]
Вне форума [Профиль] [ЛС]

Пуля / Bullet
Слоган: «This time they messed with the wrong guy!»
Год выпуска: 2014
Страна: США
Жанр: Боевик, криминал
Продолжительность: 01:27:16
Перевод: Одноголосый закадровый (qwerty)
Cубтитры: Английские
Навигация по главам: Есть
Режиссер: Ник Лион / Nick Lyon--В ролях: Дэнни Трехо, Торстен Фогс, Юлия Дице, Джонатан Бэнкс, Кайл Вильяловос, Ив Мауро, Шери ДеЯнг, Элизабет Гэст, Элисон Болл, Бланка Бланко, Камилль Солари, Тара Ханнивел, Анджела Девон, Эрик Блоссом, Джералд Уэбб, Тинсел Кори, Эрик Этебари...--Описание: Пуля — это прозвище бескомпромиссного и жестокого полицейского, для которого борьба с преступностью является смыслом его жизни. В один ужасный день мафия похищает его внука, сама того не понимая какие неприятности на себя навлекая. Пуля берет закон в свои руки и начинает вершить правосудие без суда и следствия.--Доп. информация: IMDB | КиноПоиск | Сэмпл |
Качество: BDRip 1080p
Видео: MPEG-4 AVC Video / 11200 kbps / 1920x820 / 23,976 fps / 2.35:1 / High Profile 4.1
Аудио 1: / DTS / 5.1 / 48 kHz / 1509 kbps / 24-bit / VO qwerty
Аудио 2: / DTS / 5.1 / 48 kHz / 1509 kbps / 24-bit / Original
Формат субтитров: softsub (SRT)

MediaInfo

General
Unique ID : 193947776991681872002913972749157152419 (0x91E8FBAEC5AD6AFEB25FDBCC78AE36A3)
Complete name : Bullet 2014 BDRip 1080p GORESEWAGE.mkv
Format : Matroska
Format version : Version 4 / Version 2
File size : 8.87 GiB
Duration : 1h 27mn
Overall bit rate : 14.5 Mbps
Movie name : Bullet 2014 BDRip 1080p GORESEWAGE
Encoded date : UTC 2014-02-28 12:36:24
Writing application : mkvmerge v6.1.0 ('Old Devil') built on Mar 2 2013 14:32:37
Writing library : libebml v1.3.0 + libmatroska v1.4.0
Attachment : Yes
Video #1
ID : 1
Format : AVC
Format/Info : Advanced Video Codec
Format profile : High@L4.1
Format settings, CABAC : Yes
Format settings, ReFrames : 5 frames
Codec ID : V_MPEG4/ISO/AVC
Duration : 1h 27mn
Bit rate : 11.2 Mbps
Width : 1 920 pixels
Height : 820 pixels
Display aspect ratio : 2.35:1
Frame rate mode : Constant
Frame rate : 23.976 fps
Color space : YUV
Chroma subsampling : 4:2:0
Bit depth : 8 bits
Scan type : Progressive
Bits/(Pixel*Frame) : 0.298
Stream size : 6.85 GiB (77%)
Title : Bullet 2014 BDRip 1080p GORESEWAGE
Language : English
Default : Yes
Forced : No
Audio #2
ID : 2
Format : DTS
Format/Info : Digital Theater Systems
Mode : 16
Format settings, Endianness : Big
Codec ID : A_DTS
Duration : 1h 27mn
Bit rate mode : Constant
Bit rate : 1 509 Kbps
Channel count : 6 channels
Channel positions : Front: L C R, Side: L R, LFE
Sampling rate : 48.0 KHz
Bit depth : 24 bits
Compression mode : Lossy
Stream size : 942 MiB (10%)
Title : VO qwerty
Language : Russian
Default : Yes
Forced : No
Audio #3
ID : 3
Format : DTS
Format/Info : Digital Theater Systems
Mode : 16
Format settings, Endianness : Big
Codec ID : A_DTS
Duration : 1h 27mn
Bit rate mode : Constant
Bit rate : 1 510 Kbps
Channel count : 6 channels
Channel positions : Front: L C R, Side: L R, LFE
Sampling rate : 48.0 KHz
Bit depth : 24 bits
Compression mode : Lossy
Stream size : 942 MiB (10%)
Title : Original
Language : English
Default : No
Forced : No
Text #4
ID : 4
Format : UTF-8
Codec ID : S_TEXT/UTF8
Codec ID/Info : UTF-8 Plain Text
Title : Full
Language : English
Default : No
Forced : No
Menu
00:00:00.000 : :Chapter 01
00:06:15.625 : :Chapter 02
00:11:31.524 : :Chapter 03
00:14:13.602 : :Chapter 04
00:17:44.646 : :Chapter 05
00:22:35.520 : :Chapter 06
00:27:37.656 : :Chapter 07
00:32:33.117 : :Chapter 08
00:38:37.148 : :Chapter 09
00:45:01.657 : :Chapter 10
00:50:12.092 : :Chapter 11
00:53:54.522 : :Chapter 12
00:58:18.453 : :Chapter 13
01:02:21.738 : :Chapter 14
01:06:54.135 : :Chapter 15
01:11:02.258 : :Chapter 16
01:15:43.664 : :Chapter 17
01:21:14.035 : :Chapter 18

Скриншоты


_________________
Показать сообщения:    

Текущее время: Сегодня 13:59

Часовой пояс: GMT



Вы не можете начинать темы
Вы не можете отвечать на сообщения
Вы не можете редактировать свои сообщения
Вы не можете удалять свои сообщения
Вы не можете голосовать в опросах
Вы не можете прикреплять файлы к сообщениям
Вы не можете скачивать файлы